<?xml version="1.0" standalone="no"?>
<!DOCTYPE svg PUBLIC "-//W3C//DTD SVG 1.1//EN" "http://www.w3.org/Graphics/SVG/1.1/DTD/svg11.dtd" >
<svg xmlns="http://www.w3.org/2000/svg">
<metadata></metadata>
<defs>
<font id="paralucent-extralightregular" horiz-adv-x="231" >
<font-face units-per-em="2048" ascent="1638" descent="-410" />
<missing-glyph horiz-adv-x="417" />
<glyph horiz-adv-x="2048" />
<glyph horiz-adv-x="2048" />
<glyph unicode="&#xd;" horiz-adv-x="417" />
<glyph unicode=" "  horiz-adv-x="417" />
<glyph unicode="&#x09;" horiz-adv-x="417" />
<glyph unicode="&#xa0;" horiz-adv-x="417" />
<glyph unicode="!" horiz-adv-x="227" d="M39 55q0 -39 19.5 -51t56.5 -12q35 0 55 12t20 51q0 41 -20 53.5t-55 12.5q-37 0 -56.5 -12.5t-19.5 -53.5zM82 633l16 -434h35l14 434v416h-65v-416z" />
<glyph unicode="&#x22;" horiz-adv-x="352" d="M59 860l17 -225h35l16 225v189h-68v-189zM225 860l17 -225h32l17 225v189h-66v-189z" />
<glyph unicode="#" horiz-adv-x="1181" d="M41 317h246l-103 -317h74l100 317h324l-100 -317h71l101 317h387v62h-367l90 280h277v62h-256l104 328h-69l-105 -328h-326l105 328h-70l-104 -328h-379v-62h356l-90 -280h-266v-62zM379 379l90 280h324l-91 -280h-323z" />
<glyph unicode="$" horiz-adv-x="819" d="M35 317q-2 -154 80 -234.5t260 -90.5v-203h65v203q57 2 116.5 14t109 39t80 70t30.5 104q0 76 -48 120t-119.5 69.5t-155.5 41t-157 35t-121 51t-48 91.5q0 37 13.5 67.5t45 53t84 35t129.5 12.5q80 0 134.5 -18.5t89 -52.5t51 -80t16.5 -103h70q0 131 -74 216t-246 95 v195h-65v-195q-172 -4 -246 -66.5t-74 -162.5q0 -76 49.5 -117t122 -64.5t156.5 -38t156.5 -35t121 -55t46.5 -98.5q0 -31 -14.5 -59.5t-48.5 -52t-87 -38t-133 -14.5q-170 0 -245 67.5t-75 198.5h-69z" />
<glyph unicode="%" horiz-adv-x="1908" d="M55 666q0 -74 15.5 -142.5t55.5 -123t109.5 -86t178.5 -31.5t178.5 31.5t110 85t57 123t16.5 145.5q0 49 -8 98t-28.5 91t-53.5 76t-84 54h479l-319 -987h74l340 1049h-748q-113 0 -185.5 -32t-113.5 -86t-57.5 -123t-16.5 -142zM121 668q0 -66 12 -124.5t45 -102.5 t90.5 -69.5t145.5 -25.5t145 25.5t91 69.5t47.5 102.5t13.5 124.5v-2q0 63 -13.5 121.5t-46.5 102.5t-90 70.5t-145 26.5t-145.5 -25.5t-90.5 -69.5t-46 -102.5t-13 -121.5zM1133 373q0 -74 15 -143.5t56 -123t109.5 -85t177.5 -31.5t178.5 31.5t110.5 85t57 122t16 144.5 q0 74 -16 142.5t-56 122.5t-111 86t-177 32q-109 0 -178.5 -32t-109.5 -86t-56 -123t-16 -142zM1198 373q0 63 13.5 121.5t47 102.5t90 69.5t144.5 25.5t145.5 -25.5t90 -69.5t46 -102.5t13.5 -121.5q0 -66 -13.5 -124.5t-47 -101.5t-91 -68.5t-145.5 -25.5t-144.5 25.5 t-89 70t-46 101.5t-13.5 123z" />
<glyph unicode="&#x26;" horiz-adv-x="1009" d="M72 315q0 -90 29.5 -151.5t80.5 -99t121 -55t152 -17.5q86 0 169 37t146 131l123 -160h90l-176 217q41 82 65.5 201t24.5 289h-72q0 -150 -17 -257.5t-50 -179.5l-533 713h594v64h-678l2 -76l256 -342q-53 -8 -110.5 -25.5t-105.5 -53.5t-79.5 -92.5t-31.5 -142.5z M143 315q0 72 28 120t71 77t96 43t104 20l285 -370q-55 -90 -130 -120t-144 -30q-66 0 -122.5 12.5t-97 43t-65.5 81t-25 123.5z" />
<glyph unicode="'" horiz-adv-x="186" d="M59 860l17 -225h35l16 225v189h-68v-189z" />
<glyph unicode="(" horiz-adv-x="530" d="M66 528q0 -147 19 -265t69.5 -202t136.5 -129t219 -45v58q-117 0 -190.5 40t-115.5 115.5t-57.5 184t-15.5 243.5q0 133 16.5 241t58.5 182.5t115.5 115.5t188.5 41v57q-133 0 -219 -45t-136.5 -128t-69.5 -200.5t-19 -263.5z" />
<glyph unicode=")" horiz-adv-x="530" d="M20 -55v-58q133 0 219.5 45t136.5 129t69.5 202t19.5 265q0 145 -19.5 263t-69.5 201t-136 128t-220 45v-57q115 0 189 -41t117 -115.5t59 -182t16 -241.5q0 -135 -16 -243.5t-58 -184t-116 -115.5t-191 -40z" />
<glyph unicode="*" horiz-adv-x="681" d="M45 592l31 -51l235 139l-2 -262h64l-4 262l235 -139l33 51l-240 133l240 135l-33 51l-235 -139l4 277h-64l2 -277l-235 139l-31 -51l238 -135z" />
<glyph unicode="+" horiz-adv-x="950" d="M41 391h401v-391h66v391h401v64h-401v379h-62v-146v-233h-51h-354v-64z" />
<glyph unicode="," d="M41 53q0 -63 72 -63q2 -2 6 -1t6 1l-41 -207h51l6 29q6 28 14.5 66t16.5 75t12 53q6 31 6 47q0 41 -20 53.5t-53 12.5q-35 0 -55.5 -12.5t-20.5 -53.5z" />
<glyph unicode="-" horiz-adv-x="583" d="M63 393h457v62h-457v-62z" />
<glyph unicode="." d="M41 53q0 -41 20.5 -53t55.5 -12q33 0 53 12t20 53q0 39 -20 51.5t-53 12.5q-35 0 -55.5 -12.5t-20.5 -51.5z" />
<glyph unicode="/" horiz-adv-x="411" d="M0 0h72l340 1049l-70 -2z" />
<glyph unicode="0" horiz-adv-x="952" d="M55 524q0 -117 17.5 -215t64.5 -167.5t128 -108.5t210 -39t211 39t129 108.5t64.5 166.5t17.5 214q0 119 -17.5 216.5t-64.5 168t-129 109.5t-211 39q-127 0 -209 -39t-129 -108.5t-64.5 -168t-17.5 -215.5zM129 524q0 106 14.5 193.5t53.5 148t106.5 93t171.5 32.5 q106 0 174 -32.5t107 -93t53 -147.5t14 -196q0 -106 -14 -192t-53 -146.5t-106.5 -93.5t-174.5 -33q-106 0 -174 33t-105.5 93.5t-52 146.5t-14.5 194z" />
<glyph unicode="1" horiz-adv-x="378" d="M6 985h201v-985h74v1049h-58l-217 -9v-55z" />
<glyph unicode="2" horiz-adv-x="874" d="M63 0h754v61h-684v37q0 80 50 131.5t126 90t165 72.5t165 78t127 107.5t53 159.5q2 70 -17.5 129.5t-64.5 101.5t-117.5 65.5t-179.5 23.5q-104 0 -173.5 -30t-111.5 -81t-60.5 -120.5t-18.5 -149.5h69q0 70 14.5 128t49.5 100t92 65.5t141 23.5q86 0 144.5 -18.5 t94.5 -51t50 -78.5t14 -104q-2 -84 -52 -138t-125.5 -94t-164 -74t-164 -78t-126 -105.5t-50.5 -157.5v-94z" />
<glyph unicode="3" horiz-adv-x="866" d="M49 369q0 -80 20.5 -149.5t66.5 -120t120 -80t178 -29.5q100 0 172 26.5t117 72.5t66.5 107.5t21.5 131.5q0 174 -106.5 254t-348.5 84l414 303v78h-680v-64h594l-420 -319v-58h53q127 0 209 -18.5t129 -53t65.5 -87t18.5 -119.5q0 -55 -16 -105.5t-53 -88.5t-94.5 -59.5 t-139.5 -21.5q-86 0 -145.5 23.5t-98 65.5t-56 100.5t-17.5 126.5h-70z" />
<glyph unicode="4" horiz-adv-x="919" d="M16 260h602v-260h74v260h221v62h-221v725h-12h-78l-586 -719v-68zM92 322l526 649v-649h-526z" />
<glyph unicode="5" horiz-adv-x="882" d="M76 369q0 -80 21.5 -149.5t67.5 -120t118.5 -80t177.5 -29.5q100 0 173 28.5t118 77.5t66.5 114.5t21.5 139.5q0 100 -32 167t-89 106t-138 55t-178 16h-219v289h604v64h-675v-414h272q197 0 290 -62.5t93 -220.5q0 -59 -16.5 -113.5t-53 -95.5t-95 -64.5t-140.5 -23.5 q-84 0 -144.5 23.5t-98.5 65.5t-55.5 100.5t-17.5 126.5h-71z" />
<glyph unicode="6" horiz-adv-x="937" d="M61 524q0 -129 18.5 -228t66 -168t127 -103.5t202.5 -34.5h2q113 0 189.5 28.5t123 77.5t67 113.5t20.5 134.5q0 154 -93.5 237t-296.5 83q-96 0 -160.5 -18.5t-105.5 -50.5t-60.5 -76t-23.5 -95q-4 29 -4 59v66q0 106 16.5 190t55.5 141.5t103.5 88t162.5 30.5 q158 0 232.5 -65.5t74.5 -214.5h72q0 184 -95.5 263t-283.5 79q-215 0 -312.5 -126t-97.5 -411zM154 344q0 57 14 104.5t51 82t98.5 54t155.5 19.5q96 0 160.5 -19.5t102.5 -54t53.5 -82t15.5 -104.5q0 -129 -78 -212t-248 -83h-2q-160 0 -241.5 79t-81.5 216z" />
<glyph unicode="7" horiz-adv-x="747" d="M33 985l626 2l-501 -987h80l495 979v72h-104h-135q-70 0 -134.5 -1t-103.5 -1h-41h-57h-125v-64z" />
<glyph unicode="8" horiz-adv-x="952" d="M57 270q0 -53 18.5 -103t61.5 -90t114 -63.5t175 -23.5h66q119 0 196.5 22.5t123.5 61.5t64.5 91t18.5 111q0 92 -56.5 165t-201.5 98q137 23 186 88t51 155q0 55 -13 104.5t-53 87.5t-115 59.5t-197 21.5h-21q-127 0 -204.5 -20.5t-119.5 -57.5t-56.5 -87t-14.5 -108 q0 -47 9 -87t36 -73.5t73 -57t117 -36.5q-147 -25 -202.5 -95.5t-55.5 -162.5zM129 276q0 45 15.5 87.5t54.5 74t106.5 50t171.5 18.5t171 -18.5t106 -50t53 -74t14 -87.5q0 -47 -14 -88t-53 -71.5t-104.5 -48t-166.5 -17.5q-102 0 -169.5 17.5t-108.5 48t-58.5 71.5 t-17.5 88zM154 776q0 45 9 85t42 70t97.5 47t174.5 17q113 0 177.5 -17t97 -47t42 -70t9.5 -85q0 -43 -11.5 -82t-46 -69.5t-99 -48t-169.5 -17.5q-106 0 -170.5 17.5t-98.5 48t-44 69.5t-10 82z" />
<glyph unicode="9" horiz-adv-x="935" d="M57 705q0 -154 94.5 -236t297.5 -82q94 0 158.5 18.5t105.5 50t60.5 75.5t23.5 96q6 -61 6 -127q0 -106 -18.5 -189.5t-60.5 -140.5t-108.5 -88t-162.5 -31q-158 0 -239 66.5t-81 214.5h-74q0 -182 102.5 -261t291.5 -79q215 0 318 123.5t103 408.5q0 129 -18 228.5 t-66.5 167t-128 102.5t-202.5 35q0 2 -2 2v-2q-113 0 -188.5 -29t-123 -78t-68 -112.5t-20.5 -132.5zM131 705q0 63 18.5 117.5t58.5 93t101.5 60t147.5 21.5h2q158 0 239.5 -77.5t81.5 -214.5q0 -55 -14 -103.5t-51 -82.5t-98.5 -53.5t-155.5 -19.5q-96 0 -159.5 19.5 t-101.5 53.5t-53.5 81t-15.5 105z" />
<glyph unicode=":" horiz-adv-x="233" d="M41 53q0 -41 20.5 -53t55.5 -12q33 0 53 12t20 53q0 39 -20 51.5t-53 12.5q-35 0 -55.5 -12.5t-20.5 -51.5zM41 786q0 -41 20.5 -53t55.5 -12t55.5 12t20.5 53q0 39 -20.5 51.5t-55.5 12.5t-55.5 -12.5t-20.5 -51.5z" />
<glyph unicode=";" d="M41 53q0 -63 72 -63q2 -2 6 -1t6 1l-41 -207h51l6 27q6 28 14.5 65t16.5 74t12 57q6 31 6 47q0 41 -20 53.5t-53 12.5q-35 0 -55.5 -12.5t-20.5 -53.5zM41 784q0 -39 20.5 -51t55.5 -12q33 0 53 12t20 51q0 41 -20 53.5t-53 12.5q-35 0 -55.5 -12.5t-20.5 -53.5z" />
<glyph unicode="&#x3c;" horiz-adv-x="845" d="M33 418l184 -350h76l-168 321h678v62h-678l162 305h-76z" />
<glyph unicode="=" horiz-adv-x="993" d="M63 223h867v64h-867v-64zM63 569h867v62h-867v-62z" />
<glyph unicode="&#x3e;" horiz-adv-x="845" d="M41 389h680l-170 -321h76l186 350l-186 352h-76l168 -319h-678v-62z" />
<glyph unicode="?" horiz-adv-x="839" d="M20 692h72q0 68 17.5 126.5t55.5 99t98.5 64.5t144.5 24q82 0 140 -22.5t95 -61.5t53.5 -91.5t16.5 -111.5q0 -80 -27 -132t-69 -85t-94 -46.5t-105 -13.5h-109v-243h64l8 184h61q49 0 109.5 15.5t112 53t86 103.5t34.5 164q0 72 -21.5 136.5t-66.5 112.5t-117.5 75.5 t-172.5 27.5q-104 0 -177 -29.5t-119.5 -80t-68 -120t-21.5 -149.5zM264 53q0 -39 20.5 -52t55.5 -13q33 0 53.5 13t20.5 52q0 41 -20.5 53.5t-53.5 12.5q-35 0 -55.5 -12.5t-20.5 -53.5z" />
<glyph unicode="@" horiz-adv-x="1423" d="M66 526q0 -139 25.5 -263t102 -216t216 -146.5t366.5 -54.5h279v60h-279q-205 0 -331 48t-195.5 131t-93 196.5t-23.5 244.5q0 121 24.5 232.5t89 196.5t176.5 136.5t288 51.5q178 0 290.5 -47t177 -126t88 -181.5t23.5 -213.5q0 -82 -9 -147.5t-36.5 -110.5t-78 -69.5 t-130.5 -26.5v346q0 70 -11 129.5t-46 102.5t-100.5 66.5t-173.5 23.5q-94 0 -156 -21.5t-98.5 -57.5t-51 -83t-14.5 -98h68q0 43 11 78.5t39.5 62.5t78 42t123.5 15q82 0 133 -15t80.5 -45t40 -72t12.5 -95l-83 -11t-218 -30q-76 -10 -131.5 -24.5t-92 -37t-55 -55 t-18.5 -82.5q0 -53 22.5 -92t60.5 -63.5t89 -36.5t106 -12q102 0 190.5 35.5t141.5 130.5l8 -158h37q106 0 171 30.5t100.5 86t47 131t11.5 163.5q0 117 -26.5 230t-98.5 201t-198 142t-324 54q-197 0 -322 -56t-196.5 -150.5t-99 -216.5t-27.5 -253zM440 362q0 63 53.5 95 t186.5 51l291 41v-96q0 -61 -24.5 -107.5t-67.5 -75t-99.5 -43t-117.5 -14.5q-100 0 -161 38t-61 111z" />
<glyph unicode="A" horiz-adv-x="987" d="M-8 0h78l104 242h639l105 -242h77l-450 1051h-96zM197 299l299 688l297 -688h-596z" />
<glyph unicode="B" horiz-adv-x="948" d="M96 0h432q117 0 190 22.5t113.5 62.5t56 91.5t15.5 110.5q0 41 -10 82t-32.5 75.5t-58.5 61t-89 39.5q49 12 79.5 36.5t49 57.5t24.5 68.5t6 68.5q0 59 -17 109.5t-58 86.5t-106.5 56.5t-160.5 20.5h-434v-721v-328zM172 61v445h403q76 0 126.5 -19.5t78 -50t38.5 -69.5 t11 -78q0 -47 -10 -89t-42 -73t-91 -48.5t-156 -17.5h-358zM172 565v420h360q76 0 128.5 -15.5t83 -44t44 -68.5t13.5 -89q0 -33 -7.5 -68.5t-32 -65.5t-69.5 -49.5t-121 -19.5h-399z" />
<glyph unicode="C" horiz-adv-x="1064" d="M66 524q0 -109 21.5 -205t74.5 -168.5t146 -114.5t235 -42q125 0 213 32.5t144 89t83 133.5t27 165h-76q-2 -76 -24.5 -140.5t-69.5 -112.5t-120 -76t-177 -28q-121 0 -198 36t-123 99.5t-63.5 148.5t-17.5 183t18.5 184.5t63.5 149t123 99t197 36.5q102 0 176 -28.5 t121 -76.5t69.5 -112.5t24.5 -136.5h74q0 82 -27 157.5t-83 134t-144 92.5t-211 34q-141 0 -233.5 -43t-146.5 -116t-75.5 -169t-21.5 -205z" />
<glyph unicode="D" horiz-adv-x="1003" d="M96 0h373q231 0 351 139t120 391q0 256 -112.5 387.5t-342.5 131.5h-389v-721v-328zM170 61v924h301q201 0 299 -107.5t98 -347.5q0 -236 -103 -352.5t-308 -116.5h-287z" />
<glyph unicode="E" horiz-adv-x="845" d="M96 0h703v63h-629v443h580v61h-580v418h629v64h-703v-1049z" />
<glyph unicode="F" horiz-adv-x="802" d="M96 0h74v506h565v61h-565v418h602v64h-676v-1049z" />
<glyph unicode="G" horiz-adv-x="1095" d="M66 524q0 -109 24.5 -205t79.5 -168.5t145.5 -114.5t223.5 -42q186 0 279 73.5t128 198.5l15 -266h47v561h-488v-31v-34h416v-4q0 -94 -18.5 -173t-63.5 -137.5t-121 -91.5t-190 -33q-113 0 -190 36t-124 99.5t-67.5 148.5t-20.5 183t18.5 183.5t63.5 149t123 99 t197 35.5q104 0 177 -25.5t119 -67.5t67.5 -97.5t23.5 -116.5h76q0 74 -27 140.5t-82 117.5t-143 82t-211 31q-141 0 -233.5 -42t-146.5 -115t-75.5 -169t-21.5 -205z" />
<glyph unicode="H" horiz-adv-x="1040" d="M96 0h76v506h698v-506h74v1049h-74v-482h-698v482h-76v-1049z" />
<glyph unicode="I" horiz-adv-x="268" d="M96 0h76v1049h-76v-1049z" />
<glyph unicode="J" horiz-adv-x="528" d="M0 2q74 -8 134 -8q46 0 83 5q84 11 132 50t66.5 104.5t18.5 161.5v734h-33h-32h-11l2 -736q0 -76 -14 -129t-53 -84.5t-109 -39.5q-30 -4 -66 -4q-52 0 -118 7v-61z" />
<glyph unicode="K" horiz-adv-x="837" d="M96 0h76v526l598 -526h102l-630 549l606 500h-103l-573 -482v482h-76v-1049z" />
<glyph unicode="L" horiz-adv-x="667" d="M102 0h557v61h-485l2 988h-74v-1049z" />
<glyph unicode="M" horiz-adv-x="1349" d="M96 0h74v967l467 -967h76l465 967v-967h73v1049h-108l-469 -963l-469 963h-101h-8v-1049z" />
<glyph unicode="N" horiz-adv-x="1118" d="M102 0h74v965l756 -965h90v1049h-74v-961l-751 961h-95v-224v-825z" />
<glyph unicode="O" horiz-adv-x="1116" d="M66 524q0 -109 22.5 -205t77.5 -168.5t150.5 -115.5t240.5 -43q147 0 242.5 43t151 114.5t78 167.5t22.5 205t-22.5 206t-78 170t-150.5 116t-243 43q-145 0 -240.5 -43t-150.5 -116t-77.5 -169t-22.5 -205zM141 524q0 98 18.5 184.5t65.5 149t128 99t204 36.5 q125 0 206 -36.5t128 -100t65.5 -150t18.5 -184.5t-18.5 -183t-65.5 -147.5t-128 -99.5t-206 -37q-123 0 -204 37t-128 99.5t-65.5 148.5t-18.5 184z" />
<glyph unicode="P" horiz-adv-x="944" d="M96 0h76v365h305q145 0 227 31.5t122 80.5t49.5 108.5t9.5 114.5t-11.5 117t-54.5 112t-127 84t-229 34h-367v-1047zM172 426v559h295q119 0 187.5 -27.5t103.5 -68.5t44 -92.5t9 -96.5q0 -47 -8 -95t-41 -88t-100.5 -65.5t-186.5 -25.5h-303z" />
<glyph unicode="Q" horiz-adv-x="1116" d="M66 524q0 -88 16 -182t69.5 -172t154 -128t269.5 -50h476v47l-250 12q66 27 113 75t77.5 111.5t45 136t14.5 148.5q0 109 -22.5 206t-78 170t-150.5 116t-243 43q-145 0 -240.5 -43t-150.5 -116t-77.5 -169t-22.5 -205zM141 524q0 98 18.5 184.5t65.5 149t128 99 t204 36.5q125 0 206 -36.5t128 -100t65.5 -150t18.5 -184.5t-18.5 -183t-65.5 -147.5t-128 -99.5t-206 -37q-123 0 -204 37t-128 99.5t-65.5 148.5t-18.5 184z" />
<glyph unicode="R" horiz-adv-x="944" d="M96 0h76v442l588 -442h127l-602 430h178q219 0 314 75t95 228q0 51 -12 106.5t-55 101.5t-127 77t-227 31h-355v-1049zM172 489v496h283q117 0 185.5 -23.5t103 -60.5t44 -81t9.5 -87q0 -41 -8.5 -85t-41 -78.5t-99 -57.5t-185.5 -23h-291z" />
<glyph unicode="S" horiz-adv-x="1001" d="M53 375q0 -80 23.5 -150.5t77 -123t142.5 -82t218 -29.5t212 27.5t131 72.5t66.5 98.5t18.5 106.5q0 92 -57.5 141t-143.5 76t-186 40t-186 34.5t-144.5 59.5t-58.5 114v5q0 115 88 171q90 57 242 57q76 0 141 -17.5t112.5 -54t75 -94t29.5 -137.5h72q0 94 -32 164 t-89 115t-135 66.5t-172 21.5q-184 0 -295 -75q-109 -74 -109 -219v-5q0 -68 34 -112t88 -70.5t125 -42t143.5 -27.5t141 -24.5t123 -35t87 -59.5t32.5 -96q0 -41 -15 -83t-54 -76t-108.5 -55.5t-178.5 -21.5q-111 0 -184.5 25.5t-117.5 70t-63.5 101.5t-19.5 123h-74z" />
<glyph unicode="T" horiz-adv-x="794" d="M6 985h356v-985h72v985h357v64h-785v-64z" />
<glyph unicode="U" horiz-adv-x="1050" d="M80 479q0 -258 107.5 -372.5t338.5 -114.5q229 0 337 114.5t108 372.5v572h-74v-570q0 -221 -86 -321.5t-285 -100.5t-284.5 100.5t-85.5 321.5v570h-76v-572z" />
<glyph unicode="V" horiz-adv-x="980" d="M-12 1049l458 -1049h76l467 1049h-82l-422 -965l-417 965h-80z" />
<glyph unicode="W" horiz-adv-x="1523" d="M4 1049l348 -1049h88l322 954l328 -954h86l344 1049h-76l-311 -963l-326 963h-86l-322 -963l-319 963h-76z" />
<glyph unicode="X" horiz-adv-x="917" d="M0 -2h84l375 494l375 -492h84l-416 545l387 504h-90l-340 -447l-340 447h-90l387 -504z" />
<glyph unicode="Y" horiz-adv-x="950" d="M-2 1049l436 -734v-315h76v315l451 734h-80l-408 -666l-393 666h-82z" />
<glyph unicode="Z" horiz-adv-x="860" d="M47 0h764v61h-686l670 918v70h-744v-64h662l-666 -913v-72z" />
<glyph unicode="[" horiz-adv-x="477" d="M96 -109h361v58h-293v1151h293v57h-361v-1266z" />
<glyph unicode="\" horiz-adv-x="395" d="M-8 1049l338 -1049h73l-340 1049h-71z" />
<glyph unicode="]" horiz-adv-x="477" d="M20 -51v-58h361v1266h-361v-57h295v-1151h-295z" />
<glyph unicode="^" horiz-adv-x="858" d="M76 514l352 68l356 -66v59l-356 68l-352 -68v-61z" />
<glyph unicode="_" horiz-adv-x="1171" d="M-37 -332v-63h1249v63h-1249z" />
<glyph unicode="`" horiz-adv-x="860" d="M88 1044l700 -157v63l-700 152v-58z" />
<glyph unicode="a" horiz-adv-x="884" d="M55 233q0 -63 25.5 -108t69 -75t100.5 -43t123 -13q135 0 238.5 57.5t144.5 163.5l12 -215h45v483q0 84 -12.5 153t-52 117t-114.5 74.5t-200 26.5q-106 0 -175 -22.5t-109.5 -63.5t-57 -97.5t-16.5 -121.5h71q0 55 13.5 100t45.5 77t88 50.5t142 18.5q94 0 153.5 -18.5 t93.5 -54.5t46 -87t14 -117l-352 -47q-174 -23 -255 -74t-81 -164zM129 236q0 39 14.5 68.5t46 50t84 34.5t127.5 25l342 45l-2 -82q-2 -84 -31.5 -144.5t-78.5 -101.5t-112.5 -60.5t-131.5 -19.5q-115 0 -186.5 45t-71.5 140z" />
<glyph unicode="b" horiz-adv-x="907" d="M76 0h45l12 195q27 -88 108 -145.5t244 -57.5q113 0 186.5 32.5t114.5 91t57.5 137.5t16.5 171q0 90 -16.5 169t-57.5 137t-114.5 92t-186.5 34q-80 0 -137 -15.5t-97 -41t-65.5 -61.5t-38.5 -76v497h-71v-1057v-102zM147 424q0 80 11.5 147.5t45.5 116.5t97.5 77 t165.5 28q98 0 160.5 -27t98.5 -76t48 -116.5t12 -149.5q0 -84 -12 -152.5t-47 -118t-96.5 -76t-159.5 -26.5q-100 0 -163.5 26.5t-98.5 76t-48.5 118t-13.5 152.5z" />
<glyph unicode="c" horiz-adv-x="878" d="M51 420q0 -84 18.5 -161t64.5 -137.5t126 -96t203 -35.5q193 0 283 90t90 248h-74q-4 -131 -75 -203t-226 -72q-100 0 -166 30t-103.5 80t-53 117.5t-15.5 141.5t15.5 141.5t54 118.5t103 81t163.5 30q154 0 226.5 -74t76.5 -207h74q0 158 -92.5 250t-284.5 92 q-121 0 -199 -36t-125 -96t-65.5 -139t-18.5 -163z" />
<glyph unicode="d" horiz-adv-x="909" d="M47 424q0 -92 16.5 -171t57.5 -137.5t113.5 -91t187.5 -32.5q164 0 245 57t107 146l12 -195h45v102v1057h-71v-497q-12 41 -38 76.5t-66 61t-97 41t-137 15.5q-115 0 -187.5 -34t-113.5 -92t-57.5 -137t-16.5 -169zM121 424q0 82 12 149.5t48 116.5t98.5 76t160.5 27 q102 0 166 -28t97.5 -77t45 -116.5t11.5 -147.5q0 -84 -13.5 -152.5t-48 -117t-98 -75t-164.5 -26.5q-98 0 -159.5 26.5t-96.5 76t-47 117t-12 151.5z" />
<glyph unicode="e" horiz-adv-x="874" d="M47 424q0 -84 18.5 -162t66.5 -138.5t128 -96t203 -35.5q94 0 162.5 22.5t113.5 60.5t69 87t30 104h-76q-4 -41 -23.5 -80t-55.5 -68.5t-91 -48t-131 -18.5q-92 0 -155.5 25.5t-103.5 72t-58.5 106.5t-20.5 132h713q1 18 1 36q1 74 -13 144q-16 86 -59.5 149.5 t-117.5 101.5t-186 38q-121 0 -201 -36t-127 -96t-66.5 -138t-19.5 -162zM123 446q0 70 16.5 133.5t55 111.5t101 77t159.5 29q84 0 143 -27t96 -73t52.5 -110t15.5 -138h-27h-57q-31 0 -56 -1l-26 -2h-473z" />
<glyph unicode="f" horiz-adv-x="495" d="M2 786h109v-786h69v786h309v62h-307v67q0 57 15.5 97.5t51.5 63t95 30.5q39 5 91 5q25 0 54 -1v59q-35 2 -67 2q-148 0 -222 -46q-89 -56 -89 -207v-70l-109 -12v-50z" />
<glyph unicode="g" horiz-adv-x="841" d="M23 -18q0 -80 18 -143.5t65.5 -106.5t126 -65.5t199.5 -22.5q117 0 193.5 19.5t123 52t64.5 73.5t18 84q0 74 -53 118t-133 68.5t-174 37t-174 24.5t-133 29.5t-53 54.5q0 16 20.5 34.5t87.5 26.5l51 -16q52 -17 150 -17q111 0 181.5 24t111.5 64.5t56 99t15 126.5 q0 90 -33.5 154.5t-119.5 93.5l164 12v41h-365q-113 0 -185.5 -22.5t-115.5 -62.5t-59.5 -95.5t-16.5 -120.5q0 -74 23.5 -138.5t89.5 -105.5q-127 -25 -127 -102q0 -53 53 -81t133 -44.5t172 -28.5t172 -30.5t133.5 -52.5t53.5 -93q0 -31 -13.5 -60.5t-49.5 -53t-99.5 -38 t-161.5 -14.5q-102 0 -166.5 19.5t-101.5 55.5t-51.5 87t-14.5 115h-75zM127 549q0 53 12.5 97t45 75t89 48t144.5 17q92 0 148.5 -17t88 -49t43 -76t11.5 -95q0 -57 -12.5 -104.5t-44 -82t-88 -54t-144.5 -19.5q-90 0 -147.5 19.5t-90 54t-44 83t-11.5 103.5z" />
<glyph unicode="h" horiz-adv-x="882" d="M76 0h71l3 467q0 84 12 146.5t46 102.5t92 59.5t153 19.5q94 0 151.5 -20.5t88 -60.5t40.5 -102.5t10 -144.5v-467h13h59v463q0 94 -13.5 168t-50 124t-104 75.5t-178.5 25.5q-152 0 -223.5 -46t-98.5 -134v483h-71v-1159z" />
<glyph unicode="i" horiz-adv-x="235" d="M43 1004q0 -39 19.5 -52.5t56.5 -13.5q35 0 55.5 13.5t20.5 52.5q0 41 -20.5 52t-55.5 11q-37 0 -56.5 -11.5t-19.5 -51.5zM84 10l10 -10h62v848h-72v-838z" />
<glyph unicode="j" d="M-104 -266v-62q45 -7 82 -7q80 0 120 33q60 50 60 171v979h-31h-41v-979q0 -84 -40 -118q-27 -23 -84 -23q-29 0 -66 6zM45 1004q0 -41 20.5 -53.5t55.5 -12.5t55.5 12.5t20.5 53.5t-20.5 52t-55.5 11t-55.5 -11.5t-20.5 -51.5z" />
<glyph unicode="k" horiz-adv-x="763" d="M76 0h71v410l517 -410h100l-557 444l532 404h-71h-35l-486 -371v682h-71v-1159z" />
<glyph unicode="l" horiz-adv-x="225" d="M76 0h12h59v1159h-71v-1159z" />
<glyph unicode="m" horiz-adv-x="1300" d="M76 0h6h68v492q0 72 11 128t38.5 94t73.5 58.5t116 20.5t115 -20.5t70.5 -58.5t34.5 -94.5t9 -127.5v-492h9h57h8v492q0 72 11.5 128t38 94t72.5 58.5t116 20.5t115 -20.5t70.5 -58.5t34.5 -94.5t9 -127.5v-492h74v489q0 80 -11.5 148t-43 117t-87 75.5t-143.5 26.5 q-129 0 -194.5 -54t-83.5 -140q-20 92 -81 143t-181 51q-121 0 -185.5 -45t-87.5 -117l-16 156h-43v-850z" />
<glyph unicode="n" horiz-adv-x="888" d="M76 848l2 -848h72v457q0 82 12 144.5t46 105.5t94 65.5t155 22.5q94 0 152.5 -22.5t90 -66.5t42 -106.5t10.5 -142.5v-457h10h59v453q0 92 -12 166.5t-50 127t-106.5 81t-179.5 28.5q-158 0 -235.5 -53t-102.5 -139l-18 184h-25h-16z" />
<glyph unicode="o" horiz-adv-x="907" d="M45 424q0 -84 17.5 -162t62.5 -137t124 -96t202 -37t202.5 35.5t125.5 96t64.5 138.5t18.5 162q0 82 -18.5 160t-64.5 137t-125 96t-201 37q-123 0 -202 -37t-125 -96t-63.5 -137t-17.5 -160zM117 424q0 74 14 139.5t51 116.5t102.5 81t168.5 30q102 0 167.5 -30 t103.5 -81t52.5 -116.5t14.5 -139.5t-14.5 -141.5t-53.5 -117.5t-104.5 -80t-167.5 -30t-167 30t-102 81t-51 117.5t-14 140.5z" />
<glyph unicode="p" horiz-adv-x="907" d="M76 -322h71v508q12 -43 38 -77.5t66 -61.5t97.5 -41t136.5 -14q113 0 186.5 32.5t114.5 91t57.5 137.5t16.5 169q0 92 -16.5 171t-57.5 137t-114.5 92t-186.5 34q-164 0 -244.5 -57.5t-107.5 -145.5l-12 195h-45v-103v-1067zM147 422q0 84 13.5 152.5t48.5 117.5t98.5 76 t163.5 27q98 0 159.5 -27t96.5 -76t47 -117.5t12 -152.5q0 -82 -12 -149.5t-48 -117t-98.5 -76t-160.5 -26.5q-102 0 -165.5 28t-97.5 77t-45.5 116.5t-11.5 147.5z" />
<glyph unicode="q" horiz-adv-x="903" d="M45 422q0 -90 15.5 -169t57.5 -137.5t114.5 -91t187.5 -32.5q80 0 137 14t97 41t64.5 61.5t39.5 77.5v-508h71v1065v103h-47l-12 -195q-27 90 -106.5 147.5t-245.5 57.5q-113 0 -185.5 -34t-113.5 -92t-57.5 -137t-16.5 -171zM117 422q0 84 13 152.5t48 117.5t96.5 76 t159.5 27q100 0 164 -27t98.5 -76t48 -117.5t13.5 -152.5q0 -80 -11.5 -147.5t-46 -116.5t-97 -77t-165.5 -28q-98 0 -161.5 26.5t-98.5 76t-48 117t-13 149.5z" />
<glyph unicode="r" horiz-adv-x="473" d="M76 848l2 -848h72v457q0 80 12 143.5t48 106.5t98 65q57 20 146 19h17v65q-78 0 -136.5 -13.5t-98 -38t-64.5 -60t-37 -78.5l-16 182h-27h-16z" />
<glyph unicode="s" horiz-adv-x="819" d="M35 317v-7q0 -158 92 -238q94 -82 299 -82q94 0 160.5 19.5t108.5 52t61.5 73.5t19.5 84q0 76 -48 120t-119.5 69.5t-155.5 41t-157 35t-121 51t-48 91.5q0 37 13.5 67.5t45 53t84 35t129.5 12.5q80 0 134.5 -18.5t89 -52.5t51 -80t16.5 -103h68q0 70 -19.5 127t-62.5 98 t-110.5 64.5t-164.5 23.5q-186 0 -267 -63.5t-79 -167.5q0 -76 49.5 -117t122 -64.5t156.5 -38t156.5 -35t120.5 -54.5q47 -33 47 -94v-5q0 -31 -14.5 -59.5t-48.5 -52t-87 -38t-133 -14.5q-170 0 -245 67.5t-75 198.5h-69z" />
<glyph unicode="t" horiz-adv-x="516" d="M20 784h101v-534q0 -76 21.5 -127t67.5 -81t118 -41q47 -7 105 -7q32 0 67 2v61q-36 -2 -67 -2q-45 1 -79 5q-60 8 -95.5 31.5t-50.5 62.5t-15 96v534h307v62h-307v203h-72v-201l-101 -12v-52z" />
<glyph unicode="u" horiz-adv-x="888" d="M68 393q0 -92 13 -166.5t50 -127t105.5 -80t179.5 -27.5q158 0 235.5 53t104.5 137l12 -184h45l-2 850h-55h-17v-457q0 -82 -12 -144.5t-46 -105.5t-94.5 -65.5t-154.5 -22.5t-151.5 22.5t-89 65.5t-42 105.5t-10.5 142.5v459h-8h-63v-455z" />
<glyph unicode="v" horiz-adv-x="839" d="M-8 848l383 -848h76l397 848h-82l-352 -782l-342 782h-80z" />
<glyph unicode="w" horiz-adv-x="1255" d="M6 846l279 -846h77l256 760l263 -760h82l288 846l-77 2l-254 -766l-265 764h-47h-24l-258 -760l-242 760h-78z" />
<glyph unicode="x" horiz-adv-x="798" d="M-10 0h98l307 385l314 -385h98l-369 432l350 414h-94l-299 -369l-303 371h-94l350 -418z" />
<glyph unicode="y" horiz-adv-x="899" d="M68 -43q0 -63 17 -116.5t59 -92.5t115 -60.5t183 -21.5q121 0 195 30t115 77t55 107.5t14 121.5v846h-71v-459q0 -80 -12.5 -142.5t-46.5 -105.5t-93 -65.5t-154 -22.5q-96 0 -153.5 22.5t-89 64.5t-41.5 104.5t-10 142.5v461h-72v-457q0 -92 13 -166.5t51 -127 t106.5 -80t179.5 -27.5q147 0 220 47t102 131v-170q0 -53 -11.5 -102.5t-44 -87t-92 -61t-158.5 -23.5q-94 0 -152.5 17t-92 49t-47 75t-13.5 92h-71z" />
<glyph unicode="z" horiz-adv-x="733" d="M33 0h669v61h-587l575 723v64h-653v-62h565l-569 -723v-63z" />
<glyph unicode="{" horiz-adv-x="587" d="M45 504h162v-615h360v58h-293v585v9v559h293v57h-360v-596h-162v-57z" />
<glyph unicode="|" horiz-adv-x="237" d="M84 -109h68v1268h-68v-1268z" />
<glyph unicode="}" horiz-adv-x="587" d="M20 -53v-58h361v615h162v57h-162v596h-361v-57h295v-559v-9v-585h-295z" />
<glyph unicode="~" horiz-adv-x="890" d="M57 455l2 -31h68v27q0 35 5 65.5t19.5 54t41 38t67.5 14.5q45 0 91 -35t95.5 -76t104.5 -76t117 -35q66 0 104.5 17.5t59 47.5t26.5 70t6 85v41h-69v-35q0 -35 -4.5 -65t-17.5 -51.5t-38.5 -32.5t-68.5 -11q-53 0 -101.5 34t-96.5 75.5t-99.5 75.5t-108.5 34 q-63 0 -104 -20.5t-63.5 -53t-31 -74.5t-4.5 -83z" />
<glyph unicode="&#xa1;" horiz-adv-x="227" d="M39 991q0 -41 19.5 -52t56.5 -11q35 0 55 11t20 52t-20 53.5t-55 12.5q-37 0 -56.5 -12.5t-19.5 -53.5zM80 0h67v475l-8 375h-49l-10 -375v-475z" />
<glyph unicode="&#xa2;" horiz-adv-x="892" d="M53 420q0 -80 17.5 -155t60.5 -133t115.5 -96t185.5 -44v-203h66v203q180 6 266 94t86 242h-74q-4 -131 -76.5 -203t-230.5 -72q-102 0 -167.5 30t-105.5 80t-55.5 117.5t-15.5 141.5t16.5 141.5t55.5 118.5t104.5 81t165.5 30q158 0 231.5 -74t77.5 -207h74 q0 152 -87 242t-265 98v197h-66v-197q-111 -6 -184.5 -43t-116.5 -96.5t-60.5 -135t-17.5 -157.5z" />
<glyph unicode="&#xa3;" horiz-adv-x="903" d="M43 0h805v63h-676q35 18 57.5 63.5t22.5 113.5v264h489v61h-489v148q0 139 60.5 208.5t203.5 69.5q78 0 128 -17.5t80 -53t42 -89t12 -126.5v-5h70q0 86 -14.5 153t-51.5 112t-101.5 68.5t-164.5 23.5q-184 0 -261 -92.5t-77 -251.5v-148h-121v-61h121v-271 q0 -78 -42 -124t-93 -46v-63z" />
<glyph unicode="&#xa4;" horiz-adv-x="1126" d="M6 496h113q2 -104 25.5 -195.5t79 -159t147.5 -107.5t229 -40q125 0 214 32.5t146.5 89t84 133.5t26.5 165h-74q-2 -76 -25.5 -140.5t-71.5 -112.5t-121.5 -76t-178.5 -28q-117 0 -193.5 34t-123.5 92.5t-67.5 139t-22.5 173.5h530v61h-530q2 92 23.5 172t68.5 138.5 t123.5 92t191.5 33.5q102 0 177 -28.5t123 -76.5t71.5 -112.5t23.5 -136.5h76q0 82 -27.5 157.5t-85 134t-146.5 92.5t-212 34q-135 0 -226 -40t-146.5 -107.5t-81 -159t-27.5 -193.5h-113v-61z" />
<glyph unicode="&#xa5;" horiz-adv-x="950" d="M-6 1049l412 -684h-349v-62h373v-303h78v303h377v62h-353l424 684h-77l-408 -666l-399 666h-78z" />
<glyph unicode="&#xa6;" horiz-adv-x="237" d="M84 -109h68v547h-68v-547zM84 625h68v534h-68v-534z" />
<glyph unicode="&#xa8;" horiz-adv-x="817" d="M242 997q0 -37 18.5 -49t52.5 -12q31 0 50.5 12t19.5 49q0 39 -19.5 50.5t-50.5 11.5q-35 0 -53 -11.5t-18 -50.5zM479 997q0 -37 18.5 -49t53.5 -12q33 0 51.5 12t18.5 49q0 39 -18.5 50.5t-51.5 11.5q-35 0 -53.5 -11.5t-18.5 -50.5z" />
<glyph unicode="&#xa9;" horiz-adv-x="1423" d="M66 526q0 -154 33.5 -279.5t109.5 -214.5t198.5 -137.5t303.5 -48.5q180 0 304 48.5t199.5 137.5t109.5 213.5t34 278.5t-34 279t-109.5 214t-199.5 137t-304 48q-178 0 -301 -49t-200 -138t-110.5 -213t-33.5 -276zM133 526q0 141 31 255t99.5 195t178 124t269.5 43 q162 0 272.5 -43t179 -124t98 -196t29.5 -256q0 -143 -29.5 -257.5t-98 -194.5t-179.5 -123t-272 -43q-160 0 -270.5 43t-179 124t-98.5 195.5t-30 257.5zM371 520q0 -82 19.5 -149.5t62.5 -114.5t108.5 -73.5t157.5 -26.5q152 0 232.5 72.5t80.5 224.5h-63 q-2 -125 -66.5 -181.5t-185.5 -56.5q-147 0 -215 80t-68 225t66.5 225t214.5 80q121 0 185.5 -56t68.5 -185h63q0 152 -82 226.5t-235 74.5q-92 0 -156.5 -27t-106.5 -75t-61.5 -114.5t-19.5 -148.5z" />
<glyph unicode="&#xaa;" horiz-adv-x="860" d="M55 449q0 -63 25.5 -108.5t69 -75t100.5 -43t123 -13.5q135 0 238.5 57.5t144.5 163.5l12 -215h45v483q0 84 -12.5 153t-52 117t-114.5 74.5t-200 26.5q-106 0 -175 -22.5t-109.5 -63.5t-57 -97.5t-16.5 -121.5h71q0 55 13.5 100t45.5 78t88 50.5t142 17.5 q94 0 153.5 -18.5t93.5 -54.5t46 -87t14 -117l-352 -45q-174 -23 -255 -75t-81 -164zM129 451q0 39 14.5 68.5t46 50t84 34.5t127.5 25l342 47l-2 -82q-2 -84 -31.5 -145.5t-78.5 -101.5t-112.5 -59.5t-131.5 -19.5q-115 0 -186.5 44t-71.5 139z" />
<glyph unicode="&#xab;" horiz-adv-x="530" d="M41 418l178 -350h74l-176 350l176 352h-74zM240 418l176 -350h73l-176 350l176 352h-73z" />
<glyph unicode="&#xad;" horiz-adv-x="694" d="M63 393h568v62h-568v-62z" />
<glyph unicode="&#xae;" horiz-adv-x="1423" d="M66 526q0 -154 33.5 -279.5t109.5 -214.5t198.5 -137.5t303.5 -48.5q180 0 304 48.5t199.5 137.5t109.5 213.5t34 278.5t-34 279t-109.5 214t-199.5 137t-304 48q-178 0 -301 -49t-200 -138t-110.5 -213t-33.5 -276zM133 526q0 141 31 255t99.5 195t178 124t269.5 43 q162 0 272.5 -43t179 -124t98 -196t29.5 -256q0 -143 -29.5 -257.5t-98 -194.5t-179.5 -123t-272 -43q-160 0 -270.5 43t-179 124t-98.5 195.5t-30 257.5zM434 168h64v283l424 -283h110l-438 278h158q92 0 147 20.5t83 51.5t36 68t8 71q0 35 -9 74t-42 71t-97.5 53.5 t-172.5 21.5h-271v-709zM498 498v325h209q88 0 139 -15t77.5 -40t33 -54.5t6.5 -56.5t-5.5 -54.5t-30 -51t-74.5 -38.5t-138 -15h-217z" />
<glyph unicode="&#xaf;" horiz-adv-x="817" d="M51 915h727v62h-727v-62z" />
<glyph unicode="&#xb0;" horiz-adv-x="808" d="M45 672q0 -74 12.5 -143.5t51 -123t109.5 -85t185 -31.5q115 0 185.5 31.5t110.5 85t53.5 122t13.5 144.5q0 74 -13.5 142.5t-52 122.5t-109.5 86t-185 32q-115 0 -185.5 -32t-109.5 -86t-52.5 -123t-13.5 -142zM111 672q0 63 11 121.5t43 102.5t89 69.5t152 25.5 q92 0 150 -25.5t90 -69.5t43 -102.5t11 -121.5q0 -66 -11 -124.5t-44 -101.5t-90 -68.5t-152 -25.5q-92 0 -149 25.5t-89 70t-43 101.5t-11 123z" />
<glyph unicode="&#xb1;" horiz-adv-x="634" d="M8 788h113v-366v-422h51h14v788h344v58h-342v65q0 100 42 148.5t147 48.5q117 0 164 -48t47 -163h65q0 137 -62.5 204.5t-217.5 67.5q-139 0 -195.5 -66.5t-56.5 -191.5v-65l-113 -12v-46z" />
<glyph unicode="&#xb4;" horiz-adv-x="860" d="M74 897l712 160v63l-712 -162v-61z" />
<glyph unicode="&#xb5;" horiz-adv-x="962" d="M96 0h76v422h41h295q166 0 239.5 -69.5t73.5 -233.5v-119h74v121q0 154 -58.5 232.5t-179.5 101.5q74 16 117 45.5t64.5 67.5t27.5 80t6 83q0 51 -12 106.5t-55 102.5t-127 78t-227 31h-355v-1049zM172 483v502h283q117 0 185.5 -24.5t103 -61.5t44 -82t9.5 -86t-8.5 -85 t-41 -80t-99 -59.5t-185.5 -23.5h-291z" />
<glyph unicode="&#xb6;" horiz-adv-x="368" d="M51 954q0 -43 24.5 -69.5t84.5 -26.5h39l-2 -858h73v324v727h-118q-47 0 -74 -26t-27 -71z" />
<glyph unicode="&#xb7;" d="M41 524q0 -39 20.5 -51t55.5 -12q33 0 53 12t20 51q0 41 -20 53.5t-53 12.5q-35 0 -55.5 -12.5t-20.5 -53.5z" />
<glyph unicode="&#xb8;" horiz-adv-x="876" d="M76 -190v-60h260q125 0 177 63.5t52 198.5h-65q0 -96 -34 -149t-138 -53h-252z" />
<glyph unicode="&#xba;" horiz-adv-x="905" d="M45 643q0 -84 17.5 -162t62.5 -137t124 -96t202 -37t202.5 36t125.5 96t64.5 138t18.5 162q0 82 -18.5 160t-64.5 137t-125 96t-201 37q-123 0 -202 -37t-125 -96t-63.5 -137t-17.5 -160zM117 643q0 74 14 139.5t51 116.5t102.5 81t168.5 30q102 0 167.5 -30t103.5 -81 t52.5 -116.5t14.5 -139.5t-14.5 -141.5t-53.5 -117.5t-104.5 -80t-167.5 -30t-167 30t-102 81t-51 117.5t-14 140.5z" />
<glyph unicode="&#xbb;" horiz-adv-x="530" d="M41 68h74l178 350l-178 352h-74l176 -352zM240 68h71l178 350l-178 352h-71l174 -352z" />
<glyph unicode="&#xbf;" horiz-adv-x="888" d="M90 338q0 -72 21.5 -136.5t66.5 -112.5t117 -75.5t172 -27.5q104 0 178 29.5t120 79.5t67.5 120t21.5 150h-72q0 -137 -73.5 -226.5t-241.5 -89.5q-82 0 -140.5 22.5t-95 62.5t-53 92.5t-16.5 111.5q0 80 26.5 132t68.5 85t94 46t106 13h108v242h-63l-8 -184h-64 q-49 0 -108.5 -15.5t-110.5 -53.5t-86 -102.5t-35 -162.5zM459 1004q0 -41 20.5 -53.5t55.5 -12.5t55 12.5t20 53.5q0 39 -20.5 51t-54.5 12q-35 0 -55.5 -12.5t-20.5 -50.5z" />
<glyph unicode="&#xc0;" horiz-adv-x="987" d="M-8 0h78l104 242h639l105 -242h77l-450 1051h-96zM162 1245l700 -157v63l-700 152v-58zM197 299l299 688l297 -688h-596z" />
<glyph unicode="&#xc1;" horiz-adv-x="987" d="M-8 0h78l104 242h639l105 -242h77l-450 1051h-96zM142 1085l712 160v63l-712 -162v-61zM197 299l299 688l297 -688h-596z" />
<glyph unicode="&#xc2;" horiz-adv-x="987" d="M-8 0h78l104 242h639l105 -242h77l-450 1051h-96zM136 1032l358 152l360 -152v63l-360 152l-358 -152v-63zM197 299l299 688l297 -688h-596z" />
<glyph unicode="&#xc3;" horiz-adv-x="987" d="M-8 0h78l104 242h639l105 -242h77l-450 1051h-96zM100 1143l2 -31l68 2v25q0 35 5 63.5t19.5 50t41 32.5t67.5 11q45 0 91 -29.5t95.5 -65.5t104.5 -65.5t117 -29.5q66 0 104.5 14.5t59 41t26.5 64.5t6 83v41h-69v-35q0 -35 -4.5 -62.5t-17.5 -46t-38.5 -28t-68.5 -9.5 q-53 0 -101.5 30t-96.5 66t-99.5 65.5t-108.5 29.5q-63 0 -104 -18.5t-63.5 -49t-31 -69.5t-4.5 -80zM197 299l299 688l297 -688h-596z" />
<glyph unicode="&#xc4;" horiz-adv-x="987" d="M-8 0h78l104 242h639l105 -242h77l-450 1051h-96zM197 299l299 688l297 -688h-596zM303 1214q0 -37 18.5 -49t52.5 -12q31 0 50.5 12t19.5 49q0 39 -19.5 50.5t-50.5 11.5q-35 0 -53 -11.5t-18 -50.5zM540 1214q0 -37 18.5 -49t53.5 -12q33 0 51.5 12t18.5 49 q0 39 -18.5 50.5t-51.5 11.5q-35 0 -53.5 -11.5t-18.5 -50.5z" />
<glyph unicode="&#xc5;" horiz-adv-x="987" d="M-8 0h78l104 242h639l105 -242h77l-450 1051h-96zM197 299l299 688l297 -688h-596zM276 1296q0 -90 49 -129q48 -39 171 -39q121 0 170 39t49 129q0 92 -49 130t-170 38q-123 0 -171 -38t-49 -130zM344 1296q0 59 33 84t119 25q84 0 116 -25q33 -25 33 -84t-33 -84 t-116 -24q-86 0 -119 24q-33 25 -33 84z" />
<glyph unicode="&#xc6;" horiz-adv-x="1556" d="M-25 0h82l185 242h567v-242h700v63h-626v443h579v61h-579v418h626v64l-739 2zM283 299l526 686v-686h-526z" />
<glyph unicode="&#xc7;" horiz-adv-x="1064" d="M66 524q0 -104 19 -198.5t69.5 -166t136.5 -115.5t217 -48q-2 -92 -36 -139t-134 -47h-193v-60h201q123 0 174 57.5t55 186.5q115 4 198 39t135.5 91t77 131t24.5 159h-76q-2 -76 -24.5 -140.5t-69.5 -112.5t-120 -76t-177 -28q-121 0 -198 36t-123 99.5t-63.5 148.5 t-17.5 183t18.5 184.5t63.5 149t123 99t197 36.5q102 0 176 -28.5t121 -76.5t69.5 -112.5t24.5 -136.5h74q0 82 -27 157.5t-83 134t-144 92.5t-211 34q-141 0 -233.5 -43t-146.5 -116t-75.5 -169t-21.5 -205z" />
<glyph unicode="&#xc8;" horiz-adv-x="860" d="M96 0h703v63h-629v443h580v61h-580v418h629v64h-703v-1049zM115 1260l680 -158v63l-680 152v-57z" />
<glyph unicode="&#xc9;" horiz-adv-x="864" d="M98 0h701v63h-627v443h580v61h-580v418h627v64h-701v-1049zM102 1100l695 157v62l-695 -158v-61z" />
<glyph unicode="&#xca;" horiz-adv-x="860" d="M96 0h703v63h-629v443h580v61h-580v418h629v64h-703v-1049zM100 1106l346 151l349 -151v63l-349 152l-346 -152v-63z" />
<glyph unicode="&#xcb;" horiz-adv-x="860" d="M96 0h703v63h-629v443h580v61h-580v418h629v64h-703v-1049zM267 1210q0 -37 18.5 -49t52.5 -12q31 0 50.5 12t19.5 49q0 39 -19.5 50.5t-50.5 11.5q-35 0 -53 -11.5t-18 -50.5zM504 1210q0 -37 18.5 -49t53.5 -12q33 0 51.5 12t18.5 49q0 39 -18.5 50.5t-51.5 11.5 q-35 0 -53.5 -11.5t-18.5 -50.5z" />
<glyph unicode="&#xcc;" horiz-adv-x="268" d="M8 1188l260 -66v62l-260 67v-63zM96 0h76v1049h-76v-1049z" />
<glyph unicode="&#xcd;" horiz-adv-x="268" d="M6 1122l264 64v63l-264 -65v-62zM96 0h76v1049h-76v-1049z" />
<glyph unicode="&#xce;" horiz-adv-x="272" d="M-25 1126l160 72l154 -68v60l-154 70l-160 -70v-64zM96 0h76v1049h-76v-1049z" />
<glyph unicode="&#xcf;" horiz-adv-x="272" d="M96 0h76v1049h-76v-1049zM99 1208q0 -37 18.5 -49t52.5 -12q31 0 50.5 12t19.5 49q0 39 -19.5 50.5t-50.5 11.5q-35 0 -53 -11.5t-18 -50.5zM336 1208q0 -37 18.5 -49t53.5 -12q33 0 51.5 12t18.5 49q0 39 -18.5 50.5t-51.5 11.5q-35 0 -53.5 -11.5t-18.5 -50.5z" />
<glyph unicode="&#xd0;" horiz-adv-x="1030" d="M0 506h125v-29v-477h371q233 0 352 139t119 391q0 256 -112 387.5t-341 131.5h-389v-482h-125v-61zM199 61v445h278v61h-278v418h301q201 0 297 -107.5t96 -347.5q0 -469 -408 -469h-286z" />
<glyph unicode="&#xd1;" horiz-adv-x="1118" d="M102 0h74v965l756 -965h90v1049h-74v-961l-751 961h-95v-224v-825zM157 1161l2 -31l68 2v25q0 35 5 63.5t19.5 50t41 32.5t67.5 11q45 0 91 -29.5t95.5 -65.5t104.5 -65.5t117 -29.5q66 0 104.5 14.5t59 41t26.5 64.5t6 83v41h-69v-35q0 -35 -4.5 -62.5t-17.5 -46 t-38.5 -28t-68.5 -9.5q-53 0 -101.5 30t-96.5 66t-99.5 65.5t-108.5 29.5q-63 0 -104 -18.5t-63.5 -49t-31 -69.5t-4.5 -80z" />
<glyph unicode="&#xd2;" horiz-adv-x="1118" d="M66 524q0 -109 22.5 -205t77.5 -168.5t150.5 -115.5t240.5 -43q147 0 242.5 43t151 114.5t78 167.5t22.5 205t-22.5 206t-78 170t-150.5 116t-243 43q-145 0 -240.5 -43t-150.5 -116t-77.5 -169t-22.5 -205zM141 524q0 98 18.5 184.5t65.5 149t128 99t204 36.5 q125 0 206 -36.5t128 -100t65.5 -150t18.5 -184.5t-18.5 -183t-65.5 -147.5t-128 -99.5t-206 -37q-123 0 -204 37t-128 99.5t-65.5 148.5t-18.5 184zM235 1261l700 -157v63l-700 152v-58z" />
<glyph unicode="&#xd3;" horiz-adv-x="1118" d="M66 524q0 -109 22.5 -205t77.5 -168.5t150.5 -115.5t240.5 -43q147 0 242.5 43t151 114.5t78 167.5t22.5 205t-22.5 206t-78 170t-150.5 116t-243 43q-145 0 -240.5 -43t-150.5 -116t-77.5 -169t-22.5 -205zM141 524q0 98 18.5 184.5t65.5 149t128 99t204 36.5 q125 0 206 -36.5t128 -100t65.5 -150t18.5 -184.5t-18.5 -183t-65.5 -147.5t-128 -99.5t-206 -37q-123 0 -204 37t-128 99.5t-65.5 148.5t-18.5 184zM199 1112l712 160v63l-712 -162v-61z" />
<glyph unicode="&#xd4;" horiz-adv-x="1118" d="M66 524q0 -109 22.5 -205t77.5 -168.5t150.5 -115.5t240.5 -43q147 0 242.5 43t151 114.5t78 167.5t22.5 205t-22.5 206t-78 170t-150.5 116t-243 43q-145 0 -240.5 -43t-150.5 -116t-77.5 -169t-22.5 -205zM141 524q0 98 18.5 184.5t65.5 149t128 99t204 36.5 q125 0 206 -36.5t128 -100t65.5 -150t18.5 -184.5t-18.5 -183t-65.5 -147.5t-128 -99.5t-206 -37q-123 0 -204 37t-128 99.5t-65.5 148.5t-18.5 184zM201 1114l358 152l360 -152v63l-360 152l-358 -152v-63z" />
<glyph unicode="&#xd5;" horiz-adv-x="1118" d="M66 524q0 -109 22.5 -205t77.5 -168.5t150.5 -115.5t240.5 -43q147 0 242.5 43t151 114.5t78 167.5t22.5 205t-22.5 206t-78 170t-150.5 116t-243 43q-145 0 -240.5 -43t-150.5 -116t-77.5 -169t-22.5 -205zM141 524q0 98 18.5 184.5t65.5 149t128 99t204 36.5 q125 0 206 -36.5t128 -100t65.5 -150t18.5 -184.5t-18.5 -183t-65.5 -147.5t-128 -99.5t-206 -37q-123 0 -204 37t-128 99.5t-65.5 148.5t-18.5 184zM157 1155l2 -31l68 2v25q0 35 5 63.5t19.5 50t41 32.5t67.5 11q45 0 91 -29.5t95.5 -65.5t104.5 -65.5t117 -29.5 q66 0 104.5 14.5t59 41t26.5 64.5t6 83v41h-69v-35q0 -35 -4.5 -62.5t-17.5 -46t-38.5 -28t-68.5 -9.5q-53 0 -101.5 30t-96.5 66t-99.5 65.5t-108.5 29.5q-63 0 -104 -18.5t-63.5 -49t-31 -69.5t-4.5 -80z" />
<glyph unicode="&#xd6;" horiz-adv-x="1128" d="M66 524q0 -109 22.5 -205t77.5 -168.5t150.5 -115.5t240.5 -43q147 0 242.5 43t151 114.5t78 167.5t22.5 205t-22.5 206t-78 170t-150.5 116t-243 43q-145 0 -240.5 -43t-150.5 -116t-77.5 -169t-22.5 -205zM141 524q0 98 18.5 184.5t65.5 149t128 99t204 36.5 q125 0 206 -36.5t128 -100t65.5 -150t18.5 -184.5t-18.5 -183t-65.5 -147.5t-128 -99.5t-206 -37q-123 0 -204 37t-128 99.5t-65.5 148.5t-18.5 184zM369 1214q0 -37 18.5 -49t52.5 -12q31 0 50.5 12t19.5 49q0 39 -19.5 50.5t-50.5 11.5q-35 0 -53 -11.5t-18 -50.5z M606 1214q0 -37 18.5 -49t53.5 -12q33 0 51.5 12t18.5 49q0 39 -18.5 50.5t-51.5 11.5q-35 0 -53.5 -11.5t-18.5 -50.5z" />
<glyph unicode="&#xd7;" horiz-adv-x="843" d="M-10 0h98l307 385l314 -385h98l-369 432l350 414h-94l-299 -369l-303 371h-94l350 -418z" />
<glyph unicode="&#xd8;" horiz-adv-x="1128" d="M66 524q0 -86 14 -165.5t49 -146.5t91 -116t142 -76l-43 -129h72l37 113q61 -12 135 -12q147 0 242.5 43t153 114.5t80 167.5t22.5 205q0 86 -13.5 165t-47 145.5t-89 115.5t-139.5 78l47 133h-76l-36 -117q-33 6 -68 10.5t-76 4.5q-145 0 -241.5 -43t-152.5 -116 t-79.5 -169t-23.5 -205zM141 524q0 98 19.5 184.5t67.5 149t129 99t206 36.5q72 0 123 -14l-299 -891q-72 23 -119 65t-74.5 99t-40 125.5t-12.5 146.5zM451 66l299 892q68 -25 113.5 -66.5t73.5 -99t39 -126t11 -144.5q0 -98 -19.5 -183t-67.5 -147.5t-130 -99.5t-207 -37 q-31 0 -59.5 2t-52.5 9z" />
<glyph unicode="&#xd9;" horiz-adv-x="1050" d="M80 479q0 -258 107.5 -372.5t338.5 -114.5q229 0 337 114.5t108 372.5v572h-74v-570q0 -221 -86 -321.5t-285 -100.5t-284.5 100.5t-85.5 321.5v570h-76v-572zM172 1255l700 -157v63l-700 152v-58z" />
<glyph unicode="&#xda;" horiz-adv-x="1050" d="M80 479q0 -258 107.5 -372.5t338.5 -114.5q229 0 337 114.5t108 372.5v572h-74v-570q0 -221 -86 -321.5t-285 -100.5t-284.5 100.5t-85.5 321.5v570h-76v-572zM168 1118l712 160v63l-712 -162v-61z" />
<glyph unicode="&#xdb;" horiz-adv-x="1050" d="M80 479q0 -258 107.5 -372.5t338.5 -114.5q229 0 337 114.5t108 372.5v572h-74v-570q0 -221 -86 -321.5t-285 -100.5t-284.5 100.5t-85.5 321.5v570h-76v-572zM162 1114l358 152l360 -152v63l-360 152l-358 -152v-63z" />
<glyph unicode="&#xdc;" horiz-adv-x="1050" d="M80 479q0 -258 107.5 -372.5t338.5 -114.5q229 0 337 114.5t108 372.5v572h-74v-570q0 -221 -86 -321.5t-285 -100.5t-284.5 100.5t-85.5 321.5v570h-76v-572zM334 1214q0 -37 18.5 -49t52.5 -12q31 0 50.5 12t19.5 49q0 39 -19.5 50.5t-50.5 11.5q-35 0 -53 -11.5 t-18 -50.5zM571 1214q0 -37 18.5 -49t53.5 -12q33 0 51.5 12t18.5 49q0 39 -18.5 50.5t-51.5 11.5q-35 0 -53.5 -11.5t-18.5 -50.5z" />
<glyph unicode="&#xdd;" horiz-adv-x="950" d="M-2 1049l436 -734v-315h76v315l451 734h-80l-408 -666l-393 666h-82zM111 1110l712 160v63l-712 -162v-61z" />
<glyph unicode="&#xde;" horiz-adv-x="944" d="M96 0h76v201h305q145 0 227 31.5t122 82t49.5 110t9.5 114.5t-11.5 115.5t-54.5 111.5t-127 85t-229 34h-291v162h-76v-1047zM172 262v559h295q119 0 187.5 -27.5t103.5 -68.5t44 -91t9 -95q0 -47 -8 -95.5t-41 -89.5t-100.5 -66.5t-186.5 -25.5h-303z" />
<glyph unicode="&#xdf;" horiz-adv-x="1067" d="M8 784h107v-397v-387h71v348l2 547q0 66 12.5 106.5t40 64.5t71.5 32t110 8t112 -8t73.5 -31t41 -60.5t13.5 -95.5v-59h-27q-178 -10 -249 -71.5t-71 -155.5q0 -59 32 -97.5t79 -62t104.5 -37.5t110.5 -25q61 -12 120.5 -25t105.5 -32.5t73 -50.5t27 -80 q0 -31 -14.5 -59.5t-47.5 -51t-86 -37t-133 -14.5q-172 0 -246.5 67.5t-72.5 198.5h-72q-2 -162 92 -245.5t299 -83.5q94 0 161.5 19.5t109.5 52t61.5 73.5t19.5 84q0 59 -27.5 97t-72.5 65q-37 20 -79 33.5t-86 24t-89 18.5t-88 18q-39 8 -76 20.5t-66.5 30t-48 42 t-18.5 59.5q0 49 26.5 80.5t74 51t109.5 27t134 7.5v22t1 49t1 47q0 139 -69.5 201t-245.5 62q-84 0 -141.5 -14.5t-92 -45.5t-50 -79t-17.5 -117l-2 -72l-107 -12v-50z" />
<glyph unicode="&#xe0;" horiz-adv-x="890" d="M55 233q0 -63 25.5 -108t69 -75t100.5 -43t123 -13q135 0 238.5 57.5t144.5 163.5l12 -215h45v483q0 84 -12.5 153t-52 117t-114.5 74.5t-200 26.5q-106 0 -175 -22.5t-109.5 -63.5t-57 -97.5t-16.5 -121.5h71q0 55 13.5 100t45.5 77t88 50.5t142 18.5q94 0 153.5 -18.5 t93.5 -54.5t46 -87t14 -117l-352 -47q-174 -23 -255 -74t-81 -164zM96 1044l700 -157v63l-700 152v-58zM129 236q0 39 14.5 68.5t46 50t84 34.5t127.5 25l342 45l-2 -82q-2 -84 -31.5 -144.5t-78.5 -101.5t-112.5 -60.5t-131.5 -19.5q-115 0 -186.5 45t-71.5 140z" />
<glyph unicode="&#xe1;" horiz-adv-x="890" d="M55 233q0 -63 25.5 -108t69 -75t100.5 -43t123 -13q135 0 238.5 57.5t144.5 163.5l12 -215h45v483q0 84 -12.5 153t-52 117t-114.5 74.5t-200 26.5q-106 0 -175 -22.5t-109.5 -63.5t-57 -97.5t-16.5 -121.5h71q0 55 13.5 100t45.5 77t88 50.5t142 18.5q94 0 153.5 -18.5 t93.5 -54.5t46 -87t14 -117l-352 -47q-174 -23 -255 -74t-81 -164zM84 897l712 160v63l-712 -162v-61zM129 236q0 39 14.5 68.5t46 50t84 34.5t127.5 25l342 45l-2 -82q-2 -84 -31.5 -144.5t-78.5 -101.5t-112.5 -60.5t-131.5 -19.5q-115 0 -186.5 45t-71.5 140z" />
<glyph unicode="&#xe2;" horiz-adv-x="890" d="M55 233q0 -63 25.5 -108t69 -75t100.5 -43t123 -13q135 0 238.5 57.5t144.5 163.5l12 -215h45v483q0 84 -12.5 153t-52 117t-114.5 74.5t-200 26.5q-106 0 -175 -22.5t-109.5 -63.5t-57 -97.5t-16.5 -121.5h71q0 55 13.5 100t45.5 77t88 50.5t142 18.5q94 0 153.5 -18.5 t93.5 -54.5t46 -87t14 -117l-352 -47q-174 -23 -255 -74t-81 -164zM78 895l358 152l360 -152v63l-360 152l-358 -152v-63zM129 236q0 39 14.5 68.5t46 50t84 34.5t127.5 25l342 45l-2 -82q-2 -84 -31.5 -144.5t-78.5 -101.5t-112.5 -60.5t-131.5 -19.5q-115 0 -186.5 45 t-71.5 140z" />
<glyph unicode="&#xe3;" horiz-adv-x="890" d="M55 233q0 -63 25.5 -108t69 -75t100.5 -43t123 -13q135 0 238.5 57.5t144.5 163.5l12 -215h45v483q0 84 -12.5 153t-52 117t-114.5 74.5t-200 26.5q-106 0 -175 -22.5t-109.5 -63.5t-57 -97.5t-16.5 -121.5h71q0 55 13.5 100t45.5 77t88 50.5t142 18.5q94 0 153.5 -18.5 t93.5 -54.5t46 -87t14 -117l-352 -47q-174 -23 -255 -74t-81 -164zM70 940l2 -31h63v27q0 35 4 63.5t17.5 49t37 32t62.5 11.5q41 0 84 -30t89 -64.5t96 -64.5t108 -30q61 0 97 14.5t54.5 41t23.5 63.5t5 82v41h-63v-35q0 -35 -3.5 -61.5t-15.5 -45t-35.5 -27.5t-64.5 -9 q-49 0 -93 29.5t-89.5 64.5t-91.5 64.5t-99 29.5q-59 0 -97 -18.5t-59.5 -48t-28.5 -68.5t-3 -80zM129 236q0 39 14.5 68.5t46 50t84 34.5t127.5 25l342 45l-2 -82q-2 -84 -31.5 -144.5t-78.5 -101.5t-112.5 -60.5t-131.5 -19.5q-115 0 -186.5 45t-71.5 140z" />
<glyph unicode="&#xe4;" horiz-adv-x="890" d="M55 233q0 -63 25.5 -108t69 -75t100.5 -43t123 -13q135 0 238.5 57.5t144.5 163.5l12 -215h45v483q0 84 -12.5 153t-52 117t-114.5 74.5t-200 26.5q-106 0 -175 -22.5t-109.5 -63.5t-57 -97.5t-16.5 -121.5h71q0 55 13.5 100t45.5 77t88 50.5t142 18.5q94 0 153.5 -18.5 t93.5 -54.5t46 -87t14 -117l-352 -47q-174 -23 -255 -74t-81 -164zM129 236q0 39 14.5 68.5t46 50t84 34.5t127.5 25l342 45l-2 -82q-2 -84 -31.5 -144.5t-78.5 -101.5t-112.5 -60.5t-131.5 -19.5q-115 0 -186.5 45t-71.5 140zM244 1005q0 -37 18.5 -49t52.5 -12 q31 0 50.5 12t19.5 49q0 39 -19.5 50.5t-50.5 11.5q-35 0 -53 -11.5t-18 -50.5zM481 1005q0 -37 18.5 -49t53.5 -12q33 0 51.5 12t18.5 49q0 39 -18.5 50.5t-51.5 11.5q-35 0 -53.5 -11.5t-18.5 -50.5z" />
<glyph unicode="&#xe5;" horiz-adv-x="890" d="M55 233q0 -63 25.5 -108t69 -75t100.5 -43t123 -13q135 0 238.5 57.5t144.5 163.5l12 -215h45v483q0 84 -12.5 153t-52 117t-114.5 74.5t-200 26.5q-106 0 -175 -22.5t-109.5 -63.5t-57 -97.5t-16.5 -121.5h71q0 55 13.5 100t45.5 77t88 50.5t142 18.5q94 0 153.5 -18.5 t93.5 -54.5t46 -87t14 -117l-352 -47q-174 -23 -255 -74t-81 -164zM129 236q0 39 14.5 68.5t46 50t84 34.5t127.5 25l342 45l-2 -82q-2 -84 -31.5 -144.5t-78.5 -101.5t-112.5 -60.5t-131.5 -19.5q-115 0 -186.5 45t-71.5 140zM221 1092q0 -90 48 -129t171 -39q121 0 170 39 t49 129q0 92 -49 130t-170 38q-123 0 -171 -38t-48 -130zM289 1092q0 59 33 84t118 24q84 0 117 -24q33 -25 33 -84t-33 -84t-117 -25q-86 0 -118 25q-33 25 -33 84z" />
<glyph unicode="&#xe6;" horiz-adv-x="1574" d="M55 233q0 -63 25.5 -108t69 -75t100.5 -43t123 -13q117 0 215 49t143 154l17 -199h40l-1 35t-2 77t-1 76q0 37 2 39q14 -51 43 -94t73 -73.5t107.5 -48t149.5 -17.5q98 0 168 23.5t114 61.5t66.5 88t28.5 105h-74q-6 -41 -24.5 -79.5t-54 -69.5t-91 -49.5t-135.5 -18.5 q-96 0 -160.5 25.5t-104.5 71t-57.5 105.5t-19.5 132h721q4 94 -11.5 180t-58.5 149.5t-118.5 101.5t-192.5 38q-166 0 -254 -67.5t-117 -172.5q-8 55 -28.5 99.5t-61.5 75t-104.5 47t-155.5 16.5q-104 0 -174 -22.5t-112 -63.5t-58 -97.5t-16 -123.5h18h33h18 q0 129 74 186.5t219 57.5q94 0 153.5 -17.5t93.5 -52.5t46 -86t14 -117l-350 -45q-174 -23 -256 -75t-82 -165zM129 236q0 80 61.5 120.5t212.5 59.5l340 43v-82q0 -84 -29.5 -144.5t-79.5 -99.5t-114.5 -58.5t-132.5 -19.5q-115 0 -186.5 43t-71.5 138zM813 446 q2 70 17.5 132.5t54.5 110.5t103.5 76t162.5 28q86 0 146.5 -26t97.5 -72t52 -108t15 -138h-2q-2 0 -2 -3h-645z" />
<glyph unicode="&#xe7;" horiz-adv-x="878" d="M51 420q0 -80 17.5 -156t60.5 -135t116.5 -96t186.5 -43q-2 -88 -37 -134t-133 -46h-162v-60h168q123 0 175.5 56.5t56.5 185.5q174 8 255 97t81 239h-74q-4 -131 -75 -203t-226 -72q-100 0 -166 30t-103.5 80t-53 117.5t-15.5 141.5t15.5 141.5t54 118.5t103 81 t163.5 30q154 0 226.5 -74t76.5 -207h74q0 158 -92.5 250t-284.5 92q-121 0 -199 -36t-125 -96t-65.5 -139t-18.5 -163z" />
<glyph unicode="&#xe8;" horiz-adv-x="872" d="M47 424q0 -84 18.5 -162t65.5 -138.5t128 -96t204 -35.5q94 0 162.5 22.5t113.5 60.5t68 87t29 104h-74q-6 -41 -24.5 -80t-54.5 -68.5t-91 -48t-133 -18.5q-92 0 -155.5 25.5t-102.5 72t-58.5 106.5t-21.5 132h715q4 94 -12.5 180t-59.5 149.5t-118 101.5t-187 38 q-121 0 -200 -36t-126 -96t-66.5 -138t-19.5 -162zM92 1040l703 -157l-2 63l-701 152v-58zM121 446q2 70 18.5 133.5t54 111.5t101 77t160.5 29q84 0 143 -27t96 -73t52.5 -110t15.5 -138h-27h-57q-31 0 -58 -1l-26 -2h-473z" />
<glyph unicode="&#xe9;" horiz-adv-x="872" d="M47 424q0 -84 18.5 -162t65.5 -138.5t128 -96t204 -35.5q94 0 162.5 22.5t113.5 60.5t68 87t29 104h-74q-6 -41 -24.5 -80t-54.5 -68.5t-91 -48t-133 -18.5q-92 0 -155.5 25.5t-102.5 72t-58.5 106.5t-21.5 132h715q4 94 -12.5 180t-59.5 149.5t-118 101.5t-187 38 q-121 0 -200 -36t-126 -96t-66.5 -138t-19.5 -162zM94 897l713 160v63l-713 -162v-61zM121 446q2 70 18.5 133.5t54 111.5t101 77t160.5 29q84 0 143 -27t96 -73t52.5 -110t15.5 -138h-27h-57q-31 0 -58 -1l-26 -2h-473z" />
<glyph unicode="&#xea;" horiz-adv-x="872" d="M47 424q0 -84 18.5 -162t65.5 -138.5t128 -96t204 -35.5q94 0 162.5 22.5t113.5 60.5t68 87t29 104h-74q-6 -41 -24.5 -80t-54.5 -68.5t-91 -48t-133 -18.5q-92 0 -155.5 25.5t-102.5 72t-58.5 106.5t-21.5 132h715q4 94 -12.5 180t-59.5 149.5t-118 101.5t-187 38 q-121 0 -200 -36t-126 -96t-66.5 -138t-19.5 -162zM90 889l359 151l360 -151v63l-360 152l-359 -152v-63zM121 446q2 70 18.5 133.5t54 111.5t101 77t160.5 29q84 0 143 -27t96 -73t52.5 -110t15.5 -138h-27h-57q-31 0 -58 -1l-26 -2h-473z" />
<glyph unicode="&#xeb;" horiz-adv-x="872" d="M47 424q0 -84 18.5 -162t65.5 -138.5t128 -96t204 -35.5q94 0 162.5 22.5t113.5 60.5t68 87t29 104h-74q-6 -41 -24.5 -80t-54.5 -68.5t-91 -48t-133 -18.5q-92 0 -155.5 25.5t-102.5 72t-58.5 106.5t-21.5 132h715q4 94 -12.5 180t-59.5 149.5t-118 101.5t-187 38 q-121 0 -200 -36t-126 -96t-66.5 -138t-19.5 -162zM121 446q2 70 18.5 133.5t54 111.5t101 77t160.5 29q84 0 143 -27t96 -73t52.5 -110t15.5 -138h-27h-57q-31 0 -58 -1l-26 -2h-473zM272 999q0 -37 18.5 -49t53.5 -12q31 0 50.5 12t19.5 49q0 39 -19.5 50.5t-50.5 11.5 q-35 0 -53.5 -11.5t-18.5 -50.5zM510 999q0 -37 18.5 -49t53.5 -12q33 0 51 12t18 49q0 39 -18.5 50.5t-50.5 11.5q-33 0 -52.5 -11.5t-19.5 -50.5z" />
<glyph unicode="&#xec;" d="M-4 981l260 -63v63l-260 63v-63zM84 10l10 -10h62v848h-72v-838z" />
<glyph unicode="&#xed;" horiz-adv-x="235" d="M-12 918l264 65v64l-264 -66v-63zM84 10l10 -10h62v848h-72v-838z" />
<glyph unicode="&#xee;" horiz-adv-x="237" d="M-41 905l160 72l149 -66v66l-149 70l-158 -78zM84 10l10 -10h62v848h-72v-838z" />
<glyph unicode="&#xef;" horiz-adv-x="235" d="M-53 997q0 -37 19.5 -49t51.5 -12q33 0 51.5 12t18.5 49q0 39 -18.5 50.5t-51.5 11.5t-52 -11.5t-19 -50.5zM84 10l10 -10h62v848h-72v-838zM145 997q0 -37 18.5 -49t51.5 -12t52.5 12t19.5 49q0 39 -19.5 50.5t-52.5 11.5t-51.5 -11.5t-18.5 -50.5z" />
<glyph unicode="&#xf0;" horiz-adv-x="917" d="M47 424q0 -92 16.5 -171t57.5 -137.5t113.5 -91t185.5 -32.5q164 0 244.5 57t107.5 146l12 -195h45v102v840h191v62h-191v155h-69v-155h-197v-62h197v-280q-14 41 -39 76.5t-66 61t-98 41t-135 15.5q-115 0 -187.5 -34t-114.5 -92t-57.5 -137t-15.5 -169zM119 424 q0 82 12 149.5t48 116.5t98.5 76t160.5 27q102 0 166 -28t98.5 -77t46 -116.5t11.5 -147.5q0 -84 -13.5 -152.5t-49 -117t-98 -75t-163.5 -26.5q-98 0 -159.5 26.5t-97.5 76t-48 117t-12 151.5z" />
<glyph unicode="&#xf1;" horiz-adv-x="890" d="M76 942l2 -29h63q2 4 1 15l-1 12q0 70 23.5 113t101.5 43q43 0 86 -30t90 -65.5t98.5 -65.5t110.5 -30q61 0 98 15.5t57.5 42t26 63.5t3.5 82l-2 41h-66l2 -35q4 -70 -17.5 -107.5t-103.5 -37.5q-49 0 -95 29.5t-91 65.5t-92 65.5t-103 29.5q-59 0 -98 -18.5t-60.5 -49 t-29.5 -69.5t-4 -80zM84 848l2 -848h72v457q0 82 12 144.5t46 105.5t94.5 65.5t154.5 22.5t152.5 -22.5t90 -66.5t42 -106.5t10.5 -142.5v-457h10h61v453q0 92 -13 166.5t-51 127t-106.5 81t-179.5 28.5q-158 0 -235.5 -53t-102.5 -139l-16 184h-27h-16z" />
<glyph unicode="&#xf2;" horiz-adv-x="905" d="M45 424q0 -84 17.5 -162t62.5 -137t124 -96t202 -37t202.5 35.5t125.5 96t64.5 138.5t18.5 162q0 82 -18.5 160t-64.5 137t-125 96t-201 37q-123 0 -202 -37t-125 -96t-63.5 -137t-17.5 -160zM104 1042l700 -157v63l-700 152v-58zM117 424q0 74 14 139.5t51 116.5 t102.5 81t168.5 30q102 0 167.5 -30t103.5 -81t52.5 -116.5t14.5 -139.5t-14.5 -141.5t-53.5 -117.5t-104.5 -80t-167.5 -30t-167 30t-102 81t-51 117.5t-14 140.5z" />
<glyph unicode="&#xf3;" horiz-adv-x="905" d="M45 424q0 -84 17.5 -162t62.5 -137t124 -96t202 -37t202.5 35.5t125.5 96t64.5 138.5t18.5 162q0 82 -18.5 160t-64.5 137t-125 96t-201 37q-123 0 -202 -37t-125 -96t-63.5 -137t-17.5 -160zM94 897l712 160v63l-712 -162v-61zM117 424q0 74 14 139.5t51 116.5t102.5 81 t168.5 30q102 0 167.5 -30t103.5 -81t52.5 -116.5t14.5 -139.5t-14.5 -141.5t-53.5 -117.5t-104.5 -80t-167.5 -30t-167 30t-102 81t-51 117.5t-14 140.5z" />
<glyph unicode="&#xf4;" horiz-adv-x="905" d="M45 424q0 -84 17.5 -162t62.5 -137t124 -96t202 -37t202.5 35.5t125.5 96t64.5 138.5t18.5 162q0 82 -18.5 160t-64.5 137t-125 96t-201 37q-123 0 -202 -37t-125 -96t-63.5 -137t-17.5 -160zM91 897l358 152l360 -152v63l-360 152l-358 -152v-63zM117 424q0 74 14 139.5 t51 116.5t102.5 81t168.5 30q102 0 167.5 -30t103.5 -81t52.5 -116.5t14.5 -139.5t-14.5 -141.5t-53.5 -117.5t-104.5 -80t-167.5 -30t-167 30t-102 81t-51 117.5t-14 140.5z" />
<glyph unicode="&#xf5;" horiz-adv-x="905" d="M45 424q0 -84 17.5 -162t62.5 -137t124 -96t202 -37t202.5 35.5t125.5 96t64.5 138.5t18.5 162q0 82 -18.5 160t-64.5 137t-125 96t-201 37q-123 0 -202 -37t-125 -96t-63.5 -137t-17.5 -160zM74 911h65v25q0 68 23.5 109.5t101.5 41.5q43 0 87 -28.5t91 -63t98.5 -63.5 t110.5 -29q61 0 98 14.5t56.5 40t26 62.5t6.5 80v39h-68v-33q0 -35 -3 -60.5t-15.5 -44t-37 -27.5t-65.5 -9q-49 0 -95 28.5t-92 63.5t-93 63.5t-103 28.5q-61 0 -98 -17.5t-58.5 -47t-28.5 -67.5t-7 -77v-29zM117 424q0 74 14 139.5t51 116.5t102.5 81t168.5 30 q102 0 167.5 -30t103.5 -81t52.5 -116.5t14.5 -139.5t-14.5 -141.5t-53.5 -117.5t-104.5 -80t-167.5 -30t-167 30t-102 81t-51 117.5t-14 140.5z" />
<glyph unicode="&#xf6;" horiz-adv-x="905" d="M45 424q0 -84 17.5 -162t62.5 -137t124 -96t202 -37t202.5 35.5t125.5 96t64.5 138.5t18.5 162q0 82 -18.5 160t-64.5 137t-125 96t-201 37q-123 0 -202 -37t-125 -96t-63.5 -137t-17.5 -160zM117 424q0 74 14 139.5t51 116.5t102.5 81t168.5 30q102 0 167.5 -30 t103.5 -81t52.5 -116.5t14.5 -139.5t-14.5 -141.5t-53.5 -117.5t-104.5 -80t-167.5 -30t-167 30t-102 81t-51 117.5t-14 140.5zM265 999q0 -37 18.5 -49t52.5 -12q31 0 50.5 12t19.5 49q0 39 -19.5 50.5t-50.5 11.5q-35 0 -53 -11.5t-18 -50.5zM502 999q0 -37 18.5 -49 t53.5 -12q33 0 51.5 12t18.5 49q0 39 -18.5 50.5t-51.5 11.5q-35 0 -53.5 -11.5t-18.5 -50.5z" />
<glyph unicode="&#xf7;" horiz-adv-x="993" d="M63 393h867v62h-867v-62zM422 49q0 -37 19.5 -49t52.5 -12t51 12t18 49q0 39 -18.5 50.5t-50.5 11.5q-33 0 -52.5 -11.5t-19.5 -50.5zM422 788q0 -37 19.5 -49t52.5 -12t51 12t18 49t-18.5 49.5t-50.5 12.5q-33 0 -52.5 -12.5t-19.5 -49.5z" />
<glyph unicode="&#xf8;" horiz-adv-x="931" d="M45 424q0 -68 11.5 -131.5t40 -117.5t76.5 -95t122 -64l-43 -125h67l39 111q23 -4 49.5 -7t57.5 -3q125 0 207 35.5t130 96t66.5 138.5t18.5 162q0 66 -11.5 129t-41 117.5t-77.5 95.5t-122 63l45 134h-68l-41 -119q-51 10 -104 10q-127 0 -209 -37t-129 -96t-65.5 -137 t-18.5 -160zM117 424q0 70 14 134.5t51 114.5t101.5 79.5t162.5 33.5q29 0 54.5 -1t50.5 -5l-234 -698q-59 18 -98 52t-61.5 79t-31.5 99.5t-9 111.5zM379 66l233 698q59 -18 98.5 -52t63 -79t32.5 -98.5t9 -110.5q0 -72 -14.5 -137.5t-51 -114.5t-101 -80t-165.5 -33 q-29 0 -54.5 1t-49.5 6z" />
<glyph unicode="&#xf9;" horiz-adv-x="876" d="M68 393q0 -92 13 -166.5t50 -127t105.5 -80t179.5 -27.5q158 0 235.5 53t104.5 137l12 -184h45l-2 850h-55h-17v-457q0 -82 -12 -144.5t-46 -105.5t-94.5 -65.5t-154.5 -22.5t-151.5 22.5t-89 65.5t-42 105.5t-10.5 142.5v459h-8h-63v-455zM86 1053l711 -160v63l-711 154 v-57z" />
<glyph unicode="&#xfa;" horiz-adv-x="876" d="M68 393q0 -92 13 -166.5t50 -127t105.5 -80t179.5 -27.5q158 0 235.5 53t104.5 137l12 -184h45l-2 850h-55h-17v-457q0 -82 -12 -144.5t-46 -105.5t-94.5 -65.5t-154.5 -22.5t-151.5 22.5t-89 65.5t-42 105.5t-10.5 142.5v459h-8h-63v-455zM80 901l719 162v63l-719 -161 v-64z" />
<glyph unicode="&#xfb;" horiz-adv-x="876" d="M68 393q0 -92 13 -166.5t50 -127t105.5 -80t179.5 -27.5q158 0 235.5 53t104.5 137l12 -184h45l-2 850h-55h-17v-457q0 -82 -12 -144.5t-46 -105.5t-94.5 -65.5t-154.5 -22.5t-151.5 22.5t-89 65.5t-42 105.5t-10.5 142.5v459h-8h-63v-455zM74 899l364 152l365 -152v64 l-365 153l-364 -153v-64z" />
<glyph unicode="&#xfc;" horiz-adv-x="876" d="M68 393q0 -92 13 -166.5t50 -127t105.5 -80t179.5 -27.5q158 0 235.5 53t104.5 137l12 -184h45l-2 850h-55h-17v-457q0 -82 -12 -144.5t-46 -105.5t-94.5 -65.5t-154.5 -22.5t-151.5 22.5t-89 65.5t-42 105.5t-10.5 142.5v459h-8h-63v-455zM242 997q0 -37 18.5 -49 t52.5 -12q31 0 50.5 12t19.5 49q0 39 -19.5 50.5t-50.5 11.5q-35 0 -53 -11.5t-18 -50.5zM479 997q0 -37 18.5 -49t53.5 -12q33 0 51.5 12t18.5 49q0 39 -18.5 50.5t-51.5 11.5q-35 0 -53.5 -11.5t-18.5 -50.5z" />
<glyph unicode="&#xfd;" horiz-adv-x="927" d="M88 -43q0 -63 17.5 -116.5t60.5 -92.5t115.5 -60.5t183.5 -21.5q119 0 193.5 30t115.5 77t55.5 107.5t14.5 121.5v846h-72v-459q0 -80 -12 -142.5t-46 -105.5t-94.5 -65.5t-154.5 -22.5t-152.5 22.5t-90.5 64.5t-42 104.5t-10 142.5v461h-72v-457q0 -92 13.5 -166.5 t51.5 -127t106.5 -80t179.5 -27.5q147 0 220.5 47t102.5 131v-170q0 -53 -11 -102.5t-44 -87t-93.5 -61t-158.5 -23.5q-92 0 -151.5 17t-93.5 49t-47 75t-13 92h-72zM113 909l725 162v62l-725 -160v-64z" />
<glyph unicode="&#xfe;" horiz-adv-x="907" d="M76 -322h71v508q12 -43 38 -77.5t66 -61.5t97.5 -41t136.5 -14q113 0 186.5 32.5t114.5 91t57.5 137.5t16.5 169q0 92 -16.5 171t-57.5 137t-113.5 92t-185.5 34q-158 0 -234.5 -54t-105.5 -145v125v295h-71v-309v-1090zM147 422q0 84 12.5 152.5t48.5 117.5t98.5 76 t164.5 27q98 0 159.5 -27t96.5 -76t47 -117.5t12 -152.5q0 -82 -12 -149.5t-48 -117t-98.5 -76t-160.5 -26.5q-102 0 -165.5 28t-97.5 77t-45.5 116.5t-11.5 147.5z" />
<glyph unicode="&#xff;" horiz-adv-x="907" d="M68 -43q0 -63 17 -116.5t59 -92.5t115 -60.5t183 -21.5q121 0 195 30t115 77t55 107.5t14 121.5v846h-71v-459q0 -80 -12.5 -142.5t-46.5 -105.5t-93 -65.5t-154 -22.5q-96 0 -153.5 22.5t-89 64.5t-41.5 104.5t-10 142.5v461h-72v-457q0 -92 13 -166.5t51 -127 t106.5 -80t179.5 -27.5q147 0 220 47t102 131v-170q0 -53 -11.5 -102.5t-44 -87t-92 -61t-158.5 -23.5q-94 0 -152.5 17t-92 49t-47 75t-13.5 92h-71zM267 997q0 -37 18.5 -49t52.5 -12q31 0 50.5 12t19.5 49q0 39 -19.5 50.5t-50.5 11.5q-35 0 -53 -11.5t-18 -50.5z M504 997q0 -37 18.5 -49t53.5 -12q33 0 51.5 12t18.5 49q0 39 -18.5 50.5t-51.5 11.5q-35 0 -53.5 -11.5t-18.5 -50.5z" />
<glyph unicode="&#x152;" horiz-adv-x="1742" d="M66 524q0 -109 22.5 -205t77.5 -168.5t150.5 -115.5t242.5 -43q190 0 286.5 73.5t133.5 196.5v-262h700v66h-626v438h579v65h-579v416h626v64h-700v-269q-37 125 -133 201t-287 76q-145 0 -240.5 -43t-151.5 -116t-78.5 -169t-22.5 -205zM141 524q0 98 19.5 183.5 t67.5 149t129 99t202 35.5q123 0 204 -35.5t129 -99t67.5 -150t19.5 -184.5t-19.5 -182t-67.5 -147.5t-129 -99.5t-204 -36t-203 36t-128 99.5t-67.5 148.5t-19.5 183z" />
<glyph unicode="&#x153;" horiz-adv-x="1646" d="M45 424q0 -84 18.5 -162t65.5 -137t128 -96t208 -37q92 0 158.5 19.5t112.5 55t73 84t41 103.5q12 -55 38.5 -103.5t72 -84t112 -55t158.5 -19.5q98 0 167.5 22.5t115 60.5t68 87t28.5 104h-76q-4 -41 -22.5 -80t-54.5 -68.5t-92 -48t-136 -18.5q-96 0 -159.5 25.5 t-103.5 72t-58.5 106.5t-20.5 132h721q4 94 -10.5 180t-57.5 149.5t-118.5 101.5t-192.5 38q-92 0 -157.5 -20.5t-111 -55.5t-72 -84t-38.5 -104q-14 55 -41 103t-72 83t-111.5 55.5t-158.5 20.5q-127 0 -209 -37t-129 -96t-65.5 -137t-18.5 -160zM119 424q0 72 15.5 137.5 t54 115.5t106 79.5t172.5 29.5q104 0 172 -29.5t106.5 -79.5t53 -115.5t14.5 -137.5q0 -74 -15.5 -140.5t-54 -115.5t-106.5 -79t-172 -30t-172 30t-107 80t-53 115.5t-14 139.5zM887 446q2 70 17.5 133.5t54 111.5t103 77t163.5 29q86 0 146.5 -27t97 -73t52 -110 t15.5 -138h-27h-57q-31 0 -58 -1l-26 -2h-481z" />
<glyph unicode="&#x178;" horiz-adv-x="950" d="M-2 1049l436 -734v-315h76v315l451 734h-80l-408 -666l-393 666h-82zM281 1212q0 -37 18.5 -49t52.5 -12q31 0 50.5 12t19.5 49q0 39 -19.5 50.5t-50.5 11.5q-35 0 -53 -11.5t-18 -50.5zM518 1212q0 -37 18.5 -49t53.5 -12q33 0 51.5 12t18.5 49q0 39 -18.5 50.5 t-51.5 11.5q-35 0 -53.5 -11.5t-18.5 -50.5z" />
<glyph unicode="&#x2c6;" horiz-adv-x="858" d="M68 895l358 152l360 -152v63l-360 152l-358 -152v-63z" />
<glyph unicode="&#x2dc;" horiz-adv-x="915" d="M57 932l2 -31l68 2v25q0 35 5 63.5t19.5 50t41 32.5t67.5 11q45 0 91 -29.5t95.5 -65.5t104.5 -65.5t117 -29.5q66 0 104.5 14.5t59 41t26.5 64.5t6 83v41h-69v-35q0 -35 -4.5 -62.5t-17.5 -46t-38.5 -28t-68.5 -9.5q-53 0 -101.5 30t-96.5 66t-99.5 65.5t-108.5 29.5 q-63 0 -104 -18.5t-63.5 -49t-31 -69.5t-4.5 -80z" />
<glyph unicode="&#x2000;" horiz-adv-x="732" />
<glyph unicode="&#x2001;" horiz-adv-x="1464" />
<glyph unicode="&#x2002;" horiz-adv-x="732" />
<glyph unicode="&#x2003;" horiz-adv-x="1464" />
<glyph unicode="&#x2004;" horiz-adv-x="488" />
<glyph unicode="&#x2005;" horiz-adv-x="366" />
<glyph unicode="&#x2006;" horiz-adv-x="244" />
<glyph unicode="&#x2007;" horiz-adv-x="244" />
<glyph unicode="&#x2008;" horiz-adv-x="183" />
<glyph unicode="&#x2009;" horiz-adv-x="292" />
<glyph unicode="&#x200a;" horiz-adv-x="81" />
<glyph unicode="&#x2010;" horiz-adv-x="583" d="M63 393h457v62h-457v-62z" />
<glyph unicode="&#x2011;" horiz-adv-x="583" d="M63 393h457v62h-457v-62z" />
<glyph unicode="&#x2012;" horiz-adv-x="583" d="M63 393h457v62h-457v-62z" />
<glyph unicode="&#x2013;" horiz-adv-x="993" d="M63 393h867v62h-867v-62z" />
<glyph unicode="&#x2014;" horiz-adv-x="1271" d="M63 393h1145v62h-1145v-62z" />
<glyph unicode="&#x2018;" d="M41 776q0 -41 20.5 -53t53.5 -12q35 0 55 12t20 53q0 63 -71 64h-13l41 207h-51l-7 -31t-16.5 -71t-16.5 -75.5t-9 -46.5q-6 -35 -6 -47z" />
<glyph unicode="&#x2019;" d="M41 991q0 -63 72 -65h12l-41 -207h51l7 31q8 30 17 70t16 76t9 46q6 33 6 49q0 39 -20 51.5t-53 12.5q-35 0 -55.5 -12.5t-20.5 -51.5z" />
<glyph unicode="&#x201a;" d="M41 53q0 -63 72 -63q2 -2 6 -1t6 1l-41 -207h51l6 29q6 28 14.5 65t16.5 74t12 55q6 31 6 47q0 41 -20 53.5t-53 12.5q-35 0 -55.5 -12.5t-20.5 -53.5z" />
<glyph unicode="&#x201c;" horiz-adv-x="450" d="M41 776q0 -41 20.5 -53t55.5 -12t55.5 12t20.5 53q0 61 -72 64h-12l41 207h-52l-7 -31q-7 -31 -16 -71t-16.5 -75.5t-9.5 -46.5q-4 -16 -6 -28.5t-2 -18.5zM260 776q0 -41 20.5 -53t53.5 -12q35 0 55.5 12t20.5 53q0 61 -72 64h-12l41 207h-52l-7 -31t-16 -71 t-16.5 -75.5t-9.5 -46.5q-6 -35 -6 -47z" />
<glyph unicode="&#x201d;" horiz-adv-x="450" d="M41 991q0 -63 72 -63q2 -2 6 -1t6 1l-41 -207h51l7 31q8 30 17 70t16 76t9 46q6 31 6 47q0 41 -20 53.5t-53 12.5q-35 0 -55.5 -12.5t-20.5 -53.5zM258 991q0 -63 72 -63q2 -2 6 -1t6 1l-39 -207h49l8 31q7 30 16 70t16 76t9 46q4 16 6.5 28.5t2.5 18.5q0 41 -20.5 53.5 t-55.5 12.5t-55.5 -12.5t-20.5 -53.5z" />
<glyph unicode="&#x201e;" horiz-adv-x="450" d="M41 53q0 -63 72 -63q2 -2 6 -1t6 1l-41 -207h51l6 29q6 28 14.5 65t16.5 74t12 55q6 31 6 47q0 41 -20 53.5t-53 12.5q-35 0 -55.5 -12.5t-20.5 -53.5zM258 53q0 -63 72 -63q2 -2 6 -1t6 1l-39 -207h49l8 29q7 28 15 67t16 75t10 52q4 16 6.5 28.5t2.5 18.5 q0 41 -20.5 53.5t-55.5 12.5t-55.5 -12.5t-20.5 -53.5z" />
<glyph unicode="&#x2022;" horiz-adv-x="1280" d="M74 524q0 -109 23.5 -206t86 -170.5t173 -117.5t284.5 -44t283.5 44t173 117.5t87 171t23.5 203.5q0 109 -23.5 207t-87 172t-173 118t-283.5 44q-172 0 -282.5 -44t-173 -118t-87 -172t-24.5 -205z" />
<glyph unicode="&#x2026;" horiz-adv-x="702" d="M41 53q0 -41 20.5 -53t55.5 -12q33 0 53 12t20 53q0 39 -20 51.5t-53 12.5q-35 0 -55.5 -12.5t-20.5 -51.5zM276 53q0 -41 20.5 -53t55.5 -12q33 0 53.5 12t20.5 53q0 39 -20.5 51.5t-53.5 12.5q-35 0 -55.5 -12.5t-20.5 -51.5zM512 53q0 -41 20.5 -53t55.5 -12 q33 0 53.5 12t20.5 53q0 39 -20.5 51.5t-53.5 12.5q-35 0 -55.5 -12.5t-20.5 -51.5z" />
<glyph unicode="&#x202f;" horiz-adv-x="292" />
<glyph unicode="&#x2039;" horiz-adv-x="333" d="M41 418l178 -350h74l-176 350l176 352h-74z" />
<glyph unicode="&#x203a;" horiz-adv-x="333" d="M41 68h74l178 350l-178 352h-74l176 -352z" />
<glyph unicode="&#x205f;" horiz-adv-x="366" />
<glyph unicode="&#x2122;" horiz-adv-x="1501" d="M18 1049l2 -58h226v-669h65v669h224v58h-517zM596 322h59v645l318 -645h57l313 643v-646h66v730h-43h-49l-316 -670l-321 670h-76h-8v-727z" />
<glyph unicode="&#xe000;" horiz-adv-x="849" d="M0 0v850h850v-850h-850z" />
<glyph unicode="&#xfb01;" horiz-adv-x="497" d="M2 786h109v-786h69v784h156v-784h72v848h-226v67v5q0 61 7.5 99t30 59.5t67.5 28.5t121 3v59q-90 6 -147.5 -4t-90.5 -39.5t-46 -81t-13 -126.5v-70l-109 -12v-50z" />
<glyph unicode="&#xfb02;" horiz-adv-x="483" d="M2 784h109v-395v-389h55h14v784h72h84v-784h72v1165q-78 6 -134.5 1t-92.5 -28.5t-53 -72.5t-17 -133v-86l-109 -12v-50zM182 846v74q0 49 4 85.5t19.5 59t46.5 33t84 8.5v-258z" />
</font>
</defs>
</svg>
