<?xml version="1.0" standalone="no"?>
<!DOCTYPE svg PUBLIC "-//W3C//DTD SVG 1.1//EN" "http://www.w3.org/Graphics/SVG/1.1/DTD/svg11.dtd" >
<svg xmlns="http://www.w3.org/2000/svg">
<metadata></metadata>
<defs>
<font id="paralucent-lightregular" horiz-adv-x="1009" >
<font-face units-per-em="2048" ascent="1638" descent="-410" />
<missing-glyph horiz-adv-x="430" />
<glyph horiz-adv-x="2048" />
<glyph horiz-adv-x="2048" />
<glyph unicode="&#xd;" horiz-adv-x="430" />
<glyph unicode=" "  horiz-adv-x="430" />
<glyph unicode="&#x09;" horiz-adv-x="430" />
<glyph unicode="&#xa0;" horiz-adv-x="430" />
<glyph unicode="!" horiz-adv-x="272" d="M35 76q0 -51 27.5 -67.5t74.5 -16.5t74 16.5t27 67.5q0 53 -27 69.5t-74 16.5t-74.5 -16.5t-27.5 -69.5zM82 635l20 -397h68l25 397v414h-113v-414z" />
<glyph unicode="&#x22;" horiz-adv-x="440" d="M59 920l23 -285h68l20 285v129h-111v-129zM268 920l25 -285h67l21 285v129h-113v-129z" />
<glyph unicode="#" horiz-adv-x="1210" d="M43 297h217l-96 -297h123l96 297h285l-97 -297h123l97 297h376v102h-342l78 240h264v104h-227l98 306h-118l-103 -306h-285l99 306h-119l-102 -306h-367v-104h332l-78 -240h-254v-102zM418 399l78 240h286l-77 -240h-287z" />
<glyph unicode="$" horiz-adv-x="837" d="M39 313q-2 -147 77 -228t251 -93v-205h112v205q61 6 118.5 23.5t101.5 46t70 70.5t26 97q0 76 -45 121t-114 72t-148.5 42t-148.5 32.5t-115 43t-46 72.5q0 29 11.5 54.5t38 45t71.5 31t111 11.5q137 0 191 -58.5t58 -156.5h121q0 127 -68.5 209.5t-232.5 97.5v198h-112 v-196q-166 -10 -240 -75.5t-72 -166.5q0 -74 47.5 -115.5t117 -66.5t150.5 -39t148.5 -31.5t112.5 -47.5t43 -83q0 -25 -13.5 -48t-41 -41.5t-72.5 -31t-113 -12.5q-147 0 -211.5 57.5t-62.5 165.5h-121z" />
<glyph unicode="%" horiz-adv-x="1968" d="M59 670q0 -74 15.5 -143.5t55.5 -122t111.5 -84t182.5 -31.5t182.5 31.5t113.5 84t57.5 121t15.5 144.5q0 86 -29 160.5t-107 113.5h416l-313 -944h125l346 1049h-780q-121 0 -197 -32t-119 -84t-59.5 -121t-16.5 -142zM170 670q0 55 11.5 105t40 88t77.5 59.5t127 21.5 q76 0 126 -22.5t78.5 -59.5t40 -87t11.5 -105q0 -57 -11.5 -107.5t-41 -88.5t-79.5 -59.5t-126 -21.5t-125 21.5t-77.5 59.5t-40 88t-11.5 108zM1176 369q0 -74 15 -143.5t56 -122t112 -84t181 -31.5q111 0 181.5 31.5t112.5 84t58.5 121t16.5 144.5q0 74 -16.5 142.5 t-58.5 121.5t-112.5 85t-179.5 32q-111 0 -181.5 -32t-111.5 -85t-57 -122t-16 -142zM1286 369q0 55 11.5 105t40 88t77.5 60.5t127 22.5q76 0 126 -22.5t79 -60.5t40 -88t11 -105q0 -57 -11 -107.5t-41 -88.5t-80 -59.5t-126 -21.5t-125 22.5t-77.5 60.5t-40 88t-11.5 106z " />
<glyph unicode="&#x26;" horiz-adv-x="1060" d="M78 317q0 -166 103.5 -246.5t283.5 -80.5q88 0 170 35.5t145 117.5l117 -143h154l-205 238q39 82 61.5 194.5t22.5 269.5h-121q0 -248 -49 -372l-477 610h548v109h-692l6 -127l232 -299q-49 -10 -101.5 -29t-96.5 -54.5t-72.5 -89t-28.5 -133.5zM203 317q0 55 20.5 94.5 t55 65t79.5 38.5t95 20l256 -318q-51 -72 -118 -95.5t-128 -23.5q-117 0 -188.5 50.5t-71.5 168.5z" />
<glyph unicode="'" horiz-adv-x="229" d="M59 920l23 -285h68l20 285v129h-111v-129z" />
<glyph unicode="(" horiz-adv-x="544" d="M70 528q0 -147 19.5 -265t70.5 -200.5t139 -128t223 -45.5v95q-109 0 -175 38.5t-103 109.5t-50.5 171t-13.5 225q0 123 13.5 222.5t51.5 170t104.5 108.5t172.5 38v96q-135 0 -223 -45t-138 -128t-70.5 -199.5t-20.5 -262.5z" />
<glyph unicode=")" horiz-adv-x="544" d="M20 -16v-95q137 0 224.5 45.5t138.5 128t70.5 200.5t19.5 265q0 145 -20.5 262t-70.5 200t-138 128t-224 45v-96q106 0 174 -38t106 -108.5t51.5 -170t13.5 -222.5q0 -125 -13.5 -225t-50.5 -171t-104.5 -109.5t-176.5 -38.5z" />
<glyph unicode="*" horiz-adv-x="724" d="M49 610l53 -86l213 127l-6 -233h107l-8 233l215 -127l53 86l-221 117l221 115l-53 86l-215 -127l8 248h-107l6 -248l-213 127l-53 -86l219 -115z" />
<glyph unicode="+" horiz-adv-x="974" d="M43 371h387v-371h113v371h389v104h-389v356h-103v-155v-201h-102h-295v-104z" />
<glyph unicode="," horiz-adv-x="282" d="M41 76q0 -43 21.5 -61.5t62.5 -22.5q2 0 6 -1t8 -1l-26 -207h80l6 29l14 70t15.5 81t9.5 62q2 16 4 28.5t2 22.5q0 51 -28 67.5t-73 16.5t-73.5 -16.5t-28.5 -67.5z" />
<glyph unicode="-" horiz-adv-x="598" d="M63 373h469v102h-469v-102z" />
<glyph unicode="." horiz-adv-x="284" d="M41 74q0 -53 27.5 -69.5t74.5 -16.5q45 0 73 16.5t28 69.5q0 51 -28 67.5t-73 16.5t-73.5 -16.5t-28.5 -67.5z" />
<glyph unicode="/" horiz-adv-x="471" d="M0 0h123l348 1049h-121z" />
<glyph unicode="0" horiz-adv-x="976" d="M59 524q0 -117 17.5 -215t65.5 -168.5t131 -110.5t212 -40q131 0 215 39t132.5 109.5t67 168.5t18.5 215q0 119 -18.5 217.5t-67 169t-132.5 110.5t-215 40q-129 0 -212 -40t-130 -110.5t-65.5 -169t-18.5 -215.5zM186 524q0 98 12.5 177t45 134.5t91 86t150.5 30.5 q94 0 154.5 -30.5t93.5 -86t45.5 -135.5t12.5 -178q0 -96 -12.5 -175t-45.5 -134t-93 -86t-155 -31q-92 0 -150.5 31t-91 86t-45 134t-12.5 177z" />
<glyph unicode="1" horiz-adv-x="442" d="M10 942h201v-942h129v1049h-119l-211 -17v-90z" />
<glyph unicode="2" horiz-adv-x="897" d="M66 0h770v102h-652v29q0 72 47.5 119t119 82t155.5 65.5t155.5 72.5t120.5 102.5t54 154.5q2 72 -17.5 133.5t-64.5 105.5t-120 68.5t-183 24.5q-104 0 -177 -29t-118 -80t-64.5 -119.5t-19.5 -148.5h121q0 59 14 109.5t45 86t81 55t122 19.5q143 0 200.5 -59t55.5 -160 q-2 -74 -51.5 -119t-121 -79.5t-154.5 -66.5t-153.5 -75t-117.5 -105.5t-47 -160.5v-127z" />
<glyph unicode="3" horiz-adv-x="888" d="M51 365q0 -80 21.5 -149t68.5 -119t122 -79.5t181 -29.5q102 0 175 27.5t120 73.5t68.5 108.5t21.5 130.5q0 178 -112.5 256t-310.5 80l382 247v138h-696v-109h555l-395 -276v-99h104q104 0 172 -16.5t107 -47t54.5 -74.5t15.5 -99q0 -47 -14.5 -89t-45.5 -75t-79 -51.5 t-117 -18.5q-145 0 -211 76t-66 195h-121z" />
<glyph unicode="4" horiz-adv-x="931" d="M23 240h567v-240h127v240h203v102h-203v705h-168l-526 -691v-116zM145 342l445 580v-580h-445z" />
<glyph unicode="5" horiz-adv-x="901" d="M82 365q0 -80 21.5 -149t68.5 -119t121 -79.5t180 -29.5q102 0 176 29.5t120 78.5t67.5 114.5t21.5 137.5q0 100 -32.5 167t-90 107t-132.5 56t-157 16h-206v246h565v109h-690v-457h299q170 0 244.5 -59.5t74.5 -184.5q0 -49 -14 -95t-45 -81t-80 -56.5t-117 -21.5 q-145 0 -209.5 76t-64.5 195h-121z" />
<glyph unicode="6" horiz-adv-x="948" d="M61 530q0 -119 15.5 -218t60.5 -171.5t129 -113.5t219 -41q111 0 188 28.5t124 77.5t68.5 113.5t21.5 136.5q0 170 -104.5 249t-276.5 79q-84 0 -141.5 -16.5t-95.5 -43t-57 -63.5t-26 -76q-6 86 -3 175t31 161t89.5 118t173.5 46q137 0 200.5 -57.5t63.5 -186.5h125 q0 186 -98 266t-291 80q-109 0 -187.5 -30.5t-129.5 -96t-75 -168t-24 -248.5zM203 342q0 49 13 90t46 70.5t85 47t130 17.5q82 0 137.5 -17.5t89 -47t47 -70.5t13.5 -90q0 -129 -78 -190.5t-201 -61.5q-143 0 -212.5 70.5t-69.5 181.5z" />
<glyph unicode="7" horiz-adv-x="759" d="M29 942l596 2l-492 -944h139l478 928v123h-215t-213.5 -1t-163.5 -1h-66h-63v-107z" />
<glyph unicode="8" horiz-adv-x="972" d="M59 276q0 -53 18.5 -105t61.5 -93t117 -66.5t184 -25.5h68q121 0 198.5 24.5t124 66.5t63.5 96.5t17 115.5q0 88 -51 160.5t-174 101.5q109 25 155 87t50 148q2 57 -13.5 107.5t-58.5 89.5t-119.5 61.5t-195.5 22.5q-4 2 -12 2t-11 -2q-121 0 -198.5 -20.5t-121.5 -57.5 t-60.5 -89t-16.5 -114q0 -47 9 -87t31.5 -72.5t62.5 -57t100 -39.5q-63 -14 -106.5 -39.5t-70 -58.5t-39 -73t-12.5 -83zM186 289q0 39 13.5 75.5t47.5 65.5t92 46.5t148 17.5t148.5 -17.5t92.5 -46.5t46 -65.5t12 -75.5q0 -41 -13 -77t-47 -63.5t-90 -43t-144 -15.5 t-146.5 16.5t-94.5 43t-50.5 62.5t-14.5 77zM209 776q0 37 8 71t36 59.5t83 41t151 15.5t151.5 -15.5t84.5 -41t37 -59.5t8 -71t-9 -71.5t-39 -60.5t-85 -42t-148 -16q-92 0 -147 16t-85 42t-38 60.5t-8 71.5z" />
<glyph unicode="9" horiz-adv-x="952" d="M61 713q0 -170 104.5 -248t278.5 -78q82 0 139.5 16.5t95.5 43t57.5 62.5t25.5 77q6 -86 1 -175t-35 -162t-92.5 -118t-174.5 -45q-135 0 -205 57.5t-70 184.5h-123q0 -184 103.5 -265t294.5 -81q109 0 189.5 30.5t133 96t78 169t25.5 248.5q0 119 -15.5 218.5t-60.5 172 t-129 113.5t-219 41q-111 0 -187.5 -29.5t-124 -79t-69 -114t-21.5 -135.5zM186 713q0 129 77 191.5t200 62.5q143 0 212.5 -71.5t69.5 -182.5q0 -47 -13 -88t-45 -72t-84 -48.5t-130 -17.5q-84 0 -138 17.5t-88 47.5t-47.5 71t-13.5 90z" />
<glyph unicode=":" horiz-adv-x="284" d="M41 74q0 -53 27.5 -69.5t74.5 -16.5q45 0 73 16.5t28 69.5q0 51 -28 67.5t-73 16.5t-73.5 -16.5t-28.5 -67.5zM43 766q0 -51 27.5 -68.5t72.5 -17.5t73 17.5t28 68.5q0 53 -28 68.5t-73 15.5t-72.5 -15.5t-27.5 -68.5z" />
<glyph unicode=";" horiz-adv-x="282" d="M41 76q0 -43 21.5 -61.5t62.5 -22.5q2 0 6 -1t8 -1l-26 -207h80l6 29l14 70t15.5 81t9.5 62q2 16 4 28.5t2 22.5q0 51 -28 67.5t-73 16.5t-73.5 -16.5t-28.5 -67.5zM41 764q0 -51 27.5 -67.5t74.5 -16.5q45 0 73 16.5t28 67.5q0 53 -28 69.5t-73 16.5t-73.5 -16.5 t-28.5 -69.5z" />
<glyph unicode="&#x3c;" horiz-adv-x="866" d="M37 418l188 -348h127l-159 299h630v104h-628l157 285h-76h-55z" />
<glyph unicode="=" horiz-adv-x="1017" d="M63 203h889v102h-889v-102zM63 547h889v104h-889v-104z" />
<glyph unicode="&#x3e;" horiz-adv-x="866" d="M43 369h631l-162 -299h129l188 348l-188 350h-129l160 -295h-629v-104z" />
<glyph unicode="?" horiz-adv-x="858" d="M20 692h123q0 121 64.5 195t210.5 74q68 0 117 -19.5t79.5 -52.5t45 -77t14.5 -93q0 -63 -21.5 -107.5t-58.5 -72t-87 -41t-108 -13.5h-118v-243h106l16 147h48q49 0 110.5 15.5t113.5 52.5t88 100.5t36 161.5q0 72 -21.5 135.5t-67.5 111.5t-120 75.5t-176 27.5 q-106 0 -181 -28.5t-122.5 -80t-69 -120t-21.5 -148.5zM233 76q0 -53 28 -69.5t73 -16.5t72.5 16.5t27.5 69.5q0 51 -27.5 67.5t-72.5 16.5t-73 -16.5t-28 -67.5z" />
<glyph unicode="@" horiz-adv-x="1458" d="M70 526q0 -139 27.5 -262t106.5 -215t222 -146.5t375 -54.5h286v101h-286q-193 0 -312.5 43t-187.5 119.5t-92.5 182t-24.5 230.5q0 115 23.5 219.5t84 183.5t166 126t271.5 47t272.5 -42t167 -114t83 -167t22.5 -202q0 -78 -9.5 -137t-35 -99t-69.5 -60.5t-111 -20.5 v309q0 70 -11.5 129.5t-45.5 101.5t-99.5 65.5t-171.5 23.5q-94 0 -155.5 -21.5t-97.5 -57.5t-50.5 -82t-14.5 -93l113 2q0 33 9.5 61.5t33 49t63.5 31.5t101 11q66 0 107.5 -12t65.5 -34.5t34 -56.5t10 -79l-260 -35q-150 -20 -219.5 -62t-69.5 -140q0 -55 22.5 -95.5 t60.5 -67t88 -38.5t106 -12q98 0 176 37.5t121 109.5l18 -139h61q109 0 176.5 30.5t104.5 86t50.5 131t13.5 163.5q0 117 -28 230t-101.5 200t-201.5 141t-329 54t-329 -56.5t-201.5 -150.5t-101 -216t-27.5 -251zM506 371q0 49 40 74.5t150 41.5l244 37 q0 -127 -56.5 -200.5t-193.5 -73.5q-88 0 -136 30.5t-48 90.5z" />
<glyph unicode="A" d="M-6 0h135l90 223h576l88 -223h133l-422 1051h-170zM252 317l256 631l254 -631h-510z" />
<glyph unicode="B" horiz-adv-x="972" d="M102 -2h424q119 0 196 24.5t122 65.5t62.5 95.5t17.5 113.5q0 39 -10.5 80t-33 75.5t-57.5 60.5t-82 38q43 10 72 32.5t45 53.5t24.5 66.5t8.5 70.5v11q1 53 -17 99q-20 50 -64 87t-114.5 57.5t-171.5 20.5h-422v-721v-330zM229 102v383h332q72 0 118 -16t71.5 -42 t35 -59.5t9.5 -70.5q0 -41 -9.5 -76t-38 -61.5t-80 -42t-137.5 -15.5h-301zM229 584v358h299q72 0 118 -13.5t72.5 -38t37 -58t10.5 -74.5q0 -31 -7 -61.5t-29.5 -55.5t-64.5 -41t-112 -16h-324z" />
<glyph unicode="C" horiz-adv-x="1079" d="M70 524q0 -109 21.5 -206t74.5 -169.5t146.5 -115.5t238.5 -43q127 0 216 32.5t145.5 89t82 133.5t25.5 163h-129q-4 -66 -23.5 -123.5t-59.5 -99.5t-103.5 -65.5t-153.5 -23.5q-106 0 -175 34t-108 91.5t-54 135t-15 167.5q0 88 15 167t54 136.5t107.5 91t175.5 33.5 q88 0 151.5 -24.5t104.5 -66.5t60.5 -98t21.5 -120h131q0 82 -25.5 158t-83 133t-146.5 91t-214 34q-143 0 -236.5 -43t-147.5 -116t-75.5 -170t-21.5 -206z" />
<glyph unicode="D" horiz-adv-x="1032" d="M102 -2h377q236 0 360 140t124 392q0 256 -117 387.5t-348 131.5h-396v-721v-330zM229 102v842h240q186 0 278.5 -94.5t92.5 -319.5q0 -223 -96.5 -325.5t-284.5 -102.5h-230z" />
<glyph unicode="E" horiz-adv-x="872" d="M102 0h715v106h-588v377h539v105h-539v354h588v107h-715v-1049z" />
<glyph unicode="F" horiz-adv-x="829" d="M102 0h127v483h531v105h-531v354h568v107h-695v-1049z" />
<glyph unicode="G" horiz-adv-x="1110" d="M70 524q0 -109 23.5 -206t77.5 -169.5t145.5 -115.5t226.5 -43q160 0 245.5 61.5t126.5 161.5l29 -213h76v573h-508v-49v-59h383q0 -82 -18.5 -149.5t-60.5 -116.5t-107.5 -76t-157.5 -27q-102 0 -170 34t-109 91.5t-57 135t-16 167.5q0 88 15 167t54 136.5t107.5 91 t175.5 33.5q90 0 152.5 -21.5t102.5 -57t58.5 -83t22.5 -100.5h129q0 72 -25.5 138.5t-82 117.5t-144.5 82t-213 31q-143 0 -236.5 -43t-147.5 -116t-75.5 -170t-21.5 -206z" />
<glyph unicode="H" horiz-adv-x="1067" d="M102 0h127v483h609v-483h127v1049h-127v-461h-609v461h-127v-1049z" />
<glyph unicode="I" horiz-adv-x="331" d="M102 0h127v1049h-127v-1049z" />
<glyph unicode="J" horiz-adv-x="540" d="M0 2q80 -9 143 -9q43 0 78 4q86 11 135.5 50t67.5 104.5t18 161.5l-2 736h-61h-66v-742q0 -61 -12 -104t-46 -70t-95 -34q-23 -3 -51 -3q-47 0 -109 8v-102z" />
<glyph unicode="K" horiz-adv-x="880" d="M102 0h127v508l525 -508h172l-582 549l557 500h-172l-500 -469v469h-127v-1049z" />
<glyph unicode="L" horiz-adv-x="690" d="M106 0h570v104h-443v945h-127v-1049z" />
<glyph unicode="M" horiz-adv-x="1404" d="M102 0h127v891l410 -891h127l408 891v-891h129v1049h-195l-406 -912l-409 912h-178h-13v-1049z" />
<glyph unicode="N" horiz-adv-x="1146" d="M106 0h130v903l651 -903h157v1049h-129v-893l-645 893h-164v-447v-602z" />
<glyph unicode="O" horiz-adv-x="1132" d="M70 524q0 -109 21.5 -206t76.5 -169.5t151.5 -115.5t245.5 -43q150 0 246 43t152.5 115.5t78 168.5t21.5 205t-21.5 206t-78 171t-152.5 117t-246 43q-147 0 -243.5 -43t-152.5 -116t-77.5 -170t-21.5 -206zM199 524q0 88 15 167t57 136.5t113 91t181 33.5 q113 0 184.5 -33.5t112.5 -92t56.5 -136.5t15.5 -168q0 -88 -15.5 -165.5t-56.5 -135t-112.5 -91.5t-184.5 -34q-111 0 -181.5 34t-112.5 91.5t-57 135t-15 167.5z" />
<glyph unicode="P" horiz-adv-x="968" d="M102 0h127v369h260q147 0 231.5 31.5t124.5 80.5t49 109t9 115t-11 115.5t-54 110.5t-129 84t-234 34h-373v-1049zM229 471v471h252q100 0 158.5 -22.5t89.5 -57.5t39 -76.5t8 -80.5q0 -41 -7 -82t-37 -75t-87 -55.5t-158 -21.5h-258z" />
<glyph unicode="Q" horiz-adv-x="1132" d="M70 524q0 -111 22.5 -207t80.5 -166.5t158.5 -110.5t258.5 -40h469v80l-199 18q47 12 83 54.5t59.5 101.5t35 130t11.5 140q0 117 -19.5 215.5t-74 169t-148.5 110.5t-242 40q-147 0 -243.5 -43t-152.5 -116t-77.5 -170t-21.5 -206zM199 524q0 88 15 167t57 136.5t113 91 t181 33.5q113 0 184.5 -33.5t112.5 -92t56.5 -136.5t15.5 -168q0 -88 -15.5 -163.5t-56.5 -132t-112.5 -88.5t-184.5 -32q-111 0 -181.5 32t-112.5 88.5t-57 132t-15 165.5z" />
<glyph unicode="R" horiz-adv-x="968" d="M102 0h127v442l508 -442h181l-525 428h35h35h16q76 0 151 9t133 41t95 91.5t37 161.5q0 51 -12.5 106.5t-56.5 102.5t-129 78t-230 31h-365v-1049zM229 524v420h242q98 0 156.5 -19.5t89.5 -50t40 -68.5t9 -75t-8 -73.5t-37 -66.5t-86 -48.5t-156 -18.5h-250z" />
<glyph unicode="S" horiz-adv-x="1034" d="M66 375q0 -84 24.5 -156t79.5 -123t145.5 -79.5t219.5 -28.5q125 0 207.5 28.5t132 73.5t70 101.5t20.5 109.5q0 92 -54.5 144.5t-136.5 82t-177 45t-177 35t-137.5 51t-57.5 95.5v5q0 94 73 142q75 49 214 49q143 0 225 -62.5t88 -197.5h125q-2 180 -114.5 274.5 t-319.5 94.5q-206 0 -312 -82q-104 -80 -104 -224v-5q0 -68 33 -113t86 -72.5t120 -44t136.5 -29t136 -24.5t117.5 -32.5t82 -54.5q29 -32 29 -81v-6q-2 -35 -16.5 -70t-49.5 -61.5t-93 -43t-151 -16.5q-94 0 -158.5 21.5t-104.5 58.5t-57 87t-17 108h-127z" />
<glyph unicode="T" horiz-adv-x="804" d="M12 942h328v-942h125v942h328v107h-781v-107z" />
<glyph unicode="U" horiz-adv-x="1067" d="M86 475q0 -258 106.5 -371.5t342.5 -113.5q233 0 340.5 113.5t107.5 371.5v576h-129v-572q0 -96 -16.5 -166.5t-53 -118t-98 -70t-151.5 -22.5q-180 0 -251 93.5t-71 285.5v570h-127v-576z" />
<glyph unicode="V" horiz-adv-x="1003" d="M-10 1051l442 -1051h129l449 1051h-140l-372 -906l-369 906h-139z" />
<glyph unicode="W" horiz-adv-x="1560" d="M6 1049l334 -1049h152l288 891l293 -891h152l329 1049h-129l-276 -908l-291 908h-149l-289 -908l-281 908h-133z" />
<glyph unicode="X" horiz-adv-x="940" d="M4 0h141l324 459l328 -459h139l-393 549l364 500h-153l-285 -404l-285 404h-151l364 -500z" />
<glyph unicode="Y" horiz-adv-x="972" d="M-6 1049l420 -734v-315h131v315l432 734h-133l-363 -621l-342 621h-133h-12z" />
<glyph unicode="Z" horiz-adv-x="888" d="M55 0h781v102h-652l633 828v121h-760v-109h619l-621 -821v-121z" />
<glyph unicode="[" horiz-adv-x="493" d="M102 -109h367v95h-254v1077h254v94h-367v-1266z" />
<glyph unicode="\" horiz-adv-x="458" d="M-6 1049l348 -1049h123l-348 1049h-123z" />
<glyph unicode="]" horiz-adv-x="493" d="M25 -14v-95h366v1266h-366v-94h254v-1077h-254z" />
<glyph unicode="^" horiz-adv-x="878" d="M76 469l362 68l365 -66v8v90l-365 72l-362 -68v-104z" />
<glyph unicode="_" horiz-adv-x="1200" d="M-39 -313v-103h1282v103h-1282z" />
<glyph unicode="`" horiz-adv-x="882" d="M78 1026l729 -137v104l-729 131v-86v-12z" />
<glyph unicode="a" horiz-adv-x="894" d="M51 240q0 -66 25.5 -112t69.5 -77t102.5 -45t126.5 -14q133 0 225 50t127 128l27 -170h69v481q0 84 -13 152.5t-54 117t-117 75t-203 26.5q-109 0 -178.5 -23.5t-110.5 -64.5t-57 -96.5t-16 -120.5h121q0 47 11 85t38.5 65.5t75 42t118.5 14.5q80 0 130 -15.5t79 -45 t41 -74t12 -99.5l-305 -37q-178 -23 -261 -76t-83 -167zM178 242q0 66 53.5 97.5t182.5 47.5l286 39v-57q0 -70 -23.5 -122t-63.5 -87t-94 -52.5t-118 -17.5q-104 0 -163.5 38t-59.5 114z" />
<glyph unicode="b" horiz-adv-x="929" d="M82 0h70l6 40t18 118q12 -33 37 -64t64.5 -53.5t98 -36.5t136.5 -14q109 0 179.5 34.5t112.5 93t58.5 137.5t16.5 169q0 88 -16.5 167t-57.5 137t-111.5 92t-179.5 34q-141 0 -213 -45t-98 -109v459h-121v-1057v-102zM201 424q0 70 10 130t40 103t84 68t142 25 q86 0 140.5 -24t84 -67t41 -103t11.5 -132q0 -74 -11.5 -135.5t-41 -105.5t-83 -67.5t-137.5 -23.5q-86 0 -141 23.5t-86 66.5t-42 104.5t-11 137.5z" />
<glyph unicode="c" horiz-adv-x="880" d="M41 420q0 -84 17.5 -162t63.5 -137.5t126 -95t203 -35.5q193 0 280.5 90t87.5 248h-125q-4 -111 -60 -172.5t-188 -61.5q-84 0 -139 25.5t-87 71t-44 104.5t-12 127t12 127t45 103t86 70t137 26q131 0 187.5 -62.5t62.5 -177.5h125q0 158 -90 251t-283 93 q-121 0 -199.5 -36t-124.5 -96.5t-63.5 -138t-17.5 -161.5z" />
<glyph unicode="d" horiz-adv-x="919" d="M41 424q0 -90 16.5 -169t58.5 -137.5t112.5 -93t179.5 -34.5q78 0 136 14t98 36.5t64.5 53.5t36.5 64q12 -78 19 -118l6 -40h72v102v1057h-123v-459q-27 63 -98.5 108.5t-212.5 45.5q-109 0 -179.5 -34t-111.5 -92t-57.5 -137t-16.5 -167zM166 424q0 72 11 132t41 103 t84 67t140 24q88 0 142.5 -25t84 -69t40 -103t10.5 -129q0 -74 -11.5 -135.5t-42 -104.5t-86 -66.5t-141.5 -23.5q-84 0 -137 23.5t-83 67.5t-41 104.5t-11 134.5z" />
<glyph unicode="e" horiz-adv-x="880" d="M41 424q0 -84 17.5 -163t64.5 -138.5t128 -95t210 -35.5q100 0 169.5 22.5t115 59.5t67 86t27.5 102h-129q-6 -33 -21.5 -64.5t-45.5 -56t-76 -39t-111 -14.5q-152 0 -216.5 78t-70.5 203h668q2 30 2 59q0 66 -10 128q-14 89 -56.5 154.5t-119 104.5t-195.5 39 q-127 0 -208 -36t-128 -96t-64.5 -138t-17.5 -160zM170 467q2 57 16.5 110.5t46 92.5t84 62.5t132.5 23.5q74 0 124 -21.5t80.5 -60.5t44 -90.5t13.5 -112.5v-4h-541z" />
<glyph unicode="f" horiz-adv-x="514" d="M2 741h113v-741h121v741h266v103h-264v71q0 43 12 74t42 49.5t81 24.5q31 4 71 4q27 0 58 -2v102q-36 2 -68 2q-151 0 -227 -46q-92 -56 -92 -205v-76l-113 -25v-76z" />
<glyph unicode="g" horiz-adv-x="858" d="M27 -41q0 -72 18 -129t65.5 -98t128 -63.5t203.5 -22.5q119 0 197 21.5t124 56t65.5 77.5t19.5 88q0 74 -50 117t-127 67.5t-165 36t-165 21.5t-127 24.5t-50 47.5q0 16 16.5 31.5t75.5 21.5q55 -20 170 -20q113 0 185.5 22.5t114.5 62t57.5 96t15.5 122.5q0 82 -31 139 t-92 80l139 22l2 64h-368q-121 0 -197 -23.5t-120 -63.5t-60.5 -96.5t-16.5 -119.5q0 -66 25.5 -127.5t93.5 -100.5q-66 -16 -100.5 -43.5t-34.5 -72.5q0 -57 50 -89t126 -49.5t164 -29t163.5 -26.5t126 -42t50.5 -78q0 -25 -11.5 -49t-41 -43.5t-84 -32t-140.5 -12.5 q-90 0 -146 15.5t-89 43t-44 67.5t-11 87h-125zM182 543q0 45 10.5 80.5t38 61.5t74.5 40t121 14q76 0 124 -14t74.5 -41t36 -62.5t9.5 -78.5q0 -47 -10.5 -86t-37 -68t-73.5 -44t-121 -15q-78 0 -125 16t-74.5 44t-37 67t-9.5 86z" />
<glyph unicode="h" horiz-adv-x="907" d="M82 0h121l2 469q0 74 10 126t40 87t80 51.5t130 16.5t129 -17.5t74.5 -52.5t35 -87t9.5 -124v-469h18h105v459q0 92 -13.5 165.5t-50.5 125t-102.5 79t-171.5 27.5q-135 0 -203 -42t-92 -107v452h-121v-1159z" />
<glyph unicode="i" horiz-adv-x="286" d="M43 1020q0 -51 27.5 -68.5t74.5 -17.5t74 17.5t27 68.5q0 53 -26.5 68.5t-74.5 15.5q-47 0 -74.5 -15.5t-27.5 -68.5zM84 0h22h99v844h-121v-844z" />
<glyph unicode="j" horiz-adv-x="280" d="M-96 -221v-105q51 -8 93 -8q94 0 141 39q69 56 69 191l-2 946h-58h-61v-946q0 -72 -37 -104q-23 -20 -74 -20q-31 0 -71 7zM45 1020q0 -51 27.5 -68.5t74.5 -17.5t74 17.5t27 68.5q0 53 -26.5 68.5t-74.5 15.5q-47 0 -74.5 -15.5t-27.5 -68.5z" />
<glyph unicode="k" horiz-adv-x="808" d="M82 0h123v389l430 -389h174l-506 440l463 402h-121h-59l-381 -350v667h-123v-1159z" />
<glyph unicode="l" horiz-adv-x="284" d="M82 0h22h101v1159h-123v-1159z" />
<glyph unicode="m" horiz-adv-x="1323" d="M82 0h10h113v498q0 117 42 183.5t161 66.5q59 0 98 -17.5t60.5 -50.5t29.5 -79t8 -103v-498h14h97h14v498q0 57 9.5 104t32 79t62 49.5t99.5 17.5q59 0 97 -17.5t59.5 -50.5t29.5 -79t8 -103v-498h125v492q0 78 -11 144t-43 114.5t-87 76t-141 27.5q-127 0 -191.5 -49 t-83.5 -115q-23 78 -82 121t-168 43q-117 0 -181 -43t-87 -98l-39 129h-45h-10v-842z" />
<glyph unicode="n" horiz-adv-x="911" d="M82 0h123v463q0 68 10 121t40 90t81 56.5t131 19.5t129 -19.5t75.5 -56.5t36 -90.5t9.5 -120.5v-463h18h105v453q0 90 -13.5 164.5t-50.5 127t-103.5 81t-172.5 28.5q-76 0 -131.5 -13.5t-94 -36t-62.5 -51t-36 -61.5l-37 150h-47h-10v-842z" />
<glyph unicode="o" horiz-adv-x="884" d="M41 422q0 -84 17.5 -161t62.5 -137.5t123 -96t196 -35.5q119 0 198 35.5t124 95t63.5 137.5t18.5 162q0 82 -18.5 159.5t-63.5 137t-123 96.5t-197 37t-196.5 -37t-122.5 -96.5t-63.5 -137t-18.5 -159.5zM166 422q0 66 12 125t43 103t84 71t137 27t137.5 -27t84 -71 t43 -103t12.5 -125q0 -68 -12.5 -127t-43 -104.5t-85 -71t-138.5 -25.5t-137 26.5t-84 71t-42 103.5t-11 127z" />
<glyph unicode="p" horiz-adv-x="929" d="M82 -322h121v465q27 -63 98.5 -109t212.5 -46q109 0 179.5 34.5t111.5 93t57.5 137.5t16.5 167t-16.5 167t-58.5 138t-112.5 93t-179.5 34q-78 0 -136.5 -13.5t-98 -37t-64.5 -53t-37 -62.5q-12 78 -18 118l-6 40h-70v-103v-1063zM201 420q0 74 11 135t42 105.5t86 68 t141 23.5q84 0 137.5 -25t83 -68t41 -104t11.5 -135q0 -72 -11.5 -132.5t-41 -103.5t-84 -67.5t-140.5 -24.5q-88 0 -142 24.5t-84 68.5t-40 103.5t-10 131.5z" />
<glyph unicode="q" horiz-adv-x="925" d="M47 420q0 -88 16.5 -167t57.5 -137.5t112.5 -93t180.5 -34.5q141 0 211.5 46t99.5 109v-467h121v1063v105h-70l-6 -41t-18 -119q-12 33 -38 63.5t-66 53t-97 37t-135 14.5q-109 0 -180.5 -34t-113.5 -93t-58.5 -138t-16.5 -167zM172 420q0 74 11.5 134t42 104t83.5 68 t137 24q86 0 140.5 -24t85 -67t42 -104t11.5 -135q0 -72 -10 -131.5t-39 -103.5t-84 -68.5t-143 -24.5q-86 0 -139.5 23.5t-84 66.5t-42 103.5t-11.5 134.5z" />
<glyph unicode="r" horiz-adv-x="499" d="M82 0h123v461q0 68 11 122t43 91q33 37 89 54q46 14 114 14q16 0 34 -1v111q-10 0 -20 1q-62 1 -110 -11q-56 -12 -93 -35t-61 -51.5t-36 -61.5l-39 148h-45h-10v-842z" />
<glyph unicode="s" horiz-adv-x="837" d="M39 313v-13q0 -150 92 -228q96 -82 305 -82q96 0 165 20.5t112 54t62.5 76.5t19.5 88q0 76 -45 121t-114 72t-148.5 42t-148.5 32.5t-115 43t-46 72.5q0 29 11.5 54.5t38 45t71.5 31t111 11.5q137 0 191 -58.5t58 -156.5h115q0 70 -19.5 127t-62.5 98t-111.5 64.5 t-166.5 23.5q-193 0 -277 -69.5t-82 -176.5q0 -74 47.5 -115.5t117 -66.5t150.5 -39t148.5 -31.5t112.5 -47.5q43 -29 43 -79q0 -29 -13.5 -52t-41 -41.5t-72.5 -31t-113 -12.5q-148 0 -212 58q-63 56 -62 159v6h-121z" />
<glyph unicode="t" horiz-adv-x="534" d="M10 817l2 -78h115v-493q0 -152 91 -207q75 -45 225 -45q33 0 69 2v100q-28 -1 -53 -1q-43 0 -75 4q-50 7 -80 25.5t-41 48.5t-11 73v493h260v103h-264v207h-121v-205z" />
<glyph unicode="u" horiz-adv-x="909" d="M72 387q0 -90 13 -163.5t50 -126t103.5 -80t173.5 -27.5q150 0 224.5 48t98.5 114l25 -154h69v844h-112h-10v-459q0 -70 -10.5 -123t-40 -90t-81 -56.5t-131.5 -19.5t-130 18.5t-76.5 55.5t-35.5 89t-9 120v465h-17h-104v-455z" />
<glyph unicode="v" horiz-adv-x="876" d="M0 844l365 -844h129l383 844l-142 2l-305 -735l-293 733h-137z" />
<glyph unicode="w" horiz-adv-x="1288" d="M10 842l264 -842h134l227 698l231 -698h142l270 842h-133l-213 -709l-236 709h-78h-43l-229 -705l-201 705h-135z" />
<glyph unicode="x" horiz-adv-x="817" d="M-10 0h145l273 358l274 -358h145l-350 432l328 412h-135l-264 -338l-263 338h-139l330 -412z" />
<glyph unicode="y" horiz-adv-x="919" d="M72 -45q0 -63 17 -116.5t60.5 -92.5t117 -60.5t188.5 -21.5q123 0 197.5 30t116.5 77t56.5 106.5t14.5 120.5v846h-123v-463q0 -70 -10.5 -123t-40 -90t-80.5 -56.5t-131 -19.5t-130.5 18.5t-77 55.5t-35.5 89t-9 120v469h-121v-459q0 -92 13.5 -165t50 -125t103 -79.5 t173.5 -27.5q131 0 198.5 39t96.5 104v-141q0 -45 -9.5 -86t-38 -73t-79.5 -50.5t-135 -18.5q-82 0 -132.5 14.5t-78 40t-37.5 61.5t-12 77h-123z" />
<glyph unicode="z" horiz-adv-x="772" d="M45 0h684v102h-545l531 635v107h-668v-103h520l-522 -635v-106z" />
<glyph unicode="{" horiz-adv-x="602" d="M47 483h168v-596h367v97h-254v1079h254v94h-367v-577h-168v-97z" />
<glyph unicode="|" horiz-adv-x="290" d="M90 -109h111v1268h-111v-1268z" />
<glyph unicode="}" horiz-adv-x="602" d="M20 -16v-97h367v596h168v97h-168v577h-367v-94h254v-1079h-254z" />
<glyph unicode="~" horiz-adv-x="911" d="M61 455l2 -27h117q0 63 18.5 105t77.5 42q31 0 77 -26.5t98.5 -58t108.5 -58t110 -26.5q68 0 108.5 16t64 45t32 68t8.5 86q0 10 -1 27l-1 18h-117v-33q0 -53 -18.5 -87t-79.5 -34q-39 0 -85 26.5t-95.5 59.5t-102.5 59.5t-104 26.5q-66 0 -109 -20.5t-68.5 -53 t-35 -73.5t-5.5 -82z" />
<glyph unicode="&#xa1;" horiz-adv-x="272" d="M35 971q0 -51 27.5 -67.5t74.5 -16.5t74 16.5t27 67.5q0 53 -27 69.5t-74 16.5t-74.5 -16.5t-27.5 -69.5zM80 0h113v453l-19 356h-78l-16 -356v-453z" />
<glyph unicode="&#xa2;" horiz-adv-x="913" d="M53 420q0 -78 16.5 -151.5t58.5 -132t111.5 -97.5t178.5 -47v-205h112v205q172 12 253 100.5t81 235.5h-127q-4 -111 -65.5 -172.5t-196.5 -61.5q-86 0 -143.5 25.5t-91 71t-48 104.5t-14.5 127t14.5 127t48 103t91 70t141.5 26q135 0 196.5 -62.5t67.5 -177.5h127 q0 147 -82 237.5t-252 102.5v199h-112v-199q-106 -8 -176 -47t-112 -97.5t-59.5 -132t-17.5 -151.5z" />
<glyph unicode="&#xa3;" horiz-adv-x="925" d="M43 0h823v109h-635q23 12 51.5 55t28.5 131v184h469v103h-469v137q0 117 49.5 174t167.5 57q125 0 171 -57t46 -182v-4h121q0 84 -14 149.5t-52 110.5t-103.5 68.5t-168.5 23.5q-96 0 -161.5 -24.5t-105.5 -69.5t-57.5 -107.5t-17.5 -138.5v-137h-133v-103h133v-198 q0 -49 -16 -82t-38.5 -52.5t-47.5 -28.5t-41 -9v-109z" />
<glyph unicode="&#xa4;" horiz-adv-x="1163" d="M10 475h123q4 -100 30.5 -188t83 -154.5t148.5 -104.5t228 -38q127 0 218 32.5t149.5 89t86 133.5t27.5 163h-129q-4 -66 -24.5 -123.5t-63.5 -99.5t-108.5 -65.5t-155.5 -23.5q-98 0 -166 30t-110 80t-61.5 119.5t-23.5 149.5h492v105h-490q4 80 23.5 147.5t61.5 117.5 t108.5 78.5t165.5 28.5q90 0 154.5 -24.5t107.5 -66.5t64.5 -98t23.5 -120h131q0 82 -27.5 158t-87 133t-150.5 91t-216 34q-133 0 -224.5 -38t-148.5 -102.5t-84 -152.5t-31 -186h-125v-105z" />
<glyph unicode="&#xa5;" horiz-adv-x="972" d="M-4 1049l369 -633h-314v-105h363v-311h131v311h368v105h-317l381 633h-133l-363 -621l-352 621h-133z" />
<glyph unicode="&#xa6;" horiz-adv-x="290" d="M90 -109h111v547h-111v-547zM90 625h111v534h-111v-534z" />
<glyph unicode="&#xa8;" horiz-adv-x="835" d="M207 1024q0 -47 24.5 -62.5t69.5 -15.5q41 0 66.5 15.5t25.5 62.5q0 49 -25.5 64.5t-66.5 15.5q-45 0 -69.5 -15.5t-24.5 -64.5zM492 1024q0 -47 24.5 -62.5t67.5 -15.5t67.5 15.5t24.5 62.5q0 49 -24.5 64.5t-67.5 15.5t-67.5 -15.5t-24.5 -64.5z" />
<glyph unicode="&#xa9;" horiz-adv-x="1458" d="M70 526q0 -145 31.5 -270t108.5 -215t203 -141.5t316 -51.5t316 51.5t203 141.5t109 214t32 269t-32 269.5t-109 214.5t-202.5 141t-316.5 51q-188 0 -314 -51t-203 -141t-109.5 -214t-32.5 -268zM184 524q0 127 28 233.5t91.5 182.5t167.5 118t258 42q156 0 260.5 -42 t168 -118t90 -181.5t26.5 -234.5t-26.5 -235.5t-90 -181t-168 -116.5t-260.5 -42t-260 42t-167.5 117.5t-90.5 181t-27 234.5zM391 520q0 -78 18.5 -144.5t59.5 -115.5t106.5 -76.5t159.5 -27.5q154 0 233 76t79 223h-107q-4 -104 -56.5 -151.5t-150.5 -47.5 q-123 0 -178 69.5t-55 194.5q0 127 54 196.5t177 69.5q98 0 150.5 -48t58.5 -156h107q0 147 -80 225t-234 78q-94 0 -158.5 -28t-105.5 -77t-59.5 -115.5t-18.5 -144.5z" />
<glyph unicode="&#xaa;" horiz-adv-x="882" d="M51 455q0 -66 25.5 -112t69.5 -76.5t102.5 -45t126.5 -14.5q133 0 225 51t127 129l27 -172h69v481q0 84 -13 153t-54 117t-117 74.5t-203 26.5q-109 0 -178.5 -23.5t-110.5 -64.5t-57 -96.5t-16 -120.5h121q0 47 11 85t38.5 65.5t75 42t118.5 14.5q80 0 130 -15.5t79 -45 t41 -72.5t12 -99l-305 -39q-178 -23 -261 -76t-83 -167zM178 457q0 66 53.5 98.5t182.5 48.5l286 37v-55q0 -70 -23.5 -122t-63.5 -88t-94 -53.5t-118 -17.5q-104 0 -163.5 38t-59.5 114z" />
<glyph unicode="&#xab;" horiz-adv-x="653" d="M43 418l174 -348h123l-172 348l172 350h-123zM313 418l174 -348h123l-172 348l172 350h-123z" />
<glyph unicode="&#xad;" horiz-adv-x="817" d="M63 373h691v102h-691v-102z" />
<glyph unicode="&#xae;" horiz-adv-x="1458" d="M70 526q0 -145 31.5 -270t108.5 -215t203 -141.5t316 -51.5t316 51.5t203 141.5t109 214t32 269t-32 269.5t-109 214.5t-202.5 141t-316.5 51q-188 0 -314 -51t-203 -141t-109.5 -214t-32.5 -268zM184 524q0 127 28 233.5t91.5 182.5t167.5 118t258 42q156 0 260.5 -42 t168 -118t90 -181.5t26.5 -234.5t-26.5 -235.5t-90 -181t-168 -116.5t-260.5 -42t-260 42t-167.5 117.5t-90.5 181t-27 234.5zM451 172h106v266l330 -266h160l-347 264h105q74 0 120 20.5t71.5 52.5t33.5 69.5t8 72.5t-9 74t-42 70.5t-95.5 53t-168.5 21.5h-272v-698z M557 520v266h168q72 0 113 -13t62.5 -32.5t26.5 -44.5t5 -45q0 -23 -4 -45t-24.5 -41.5t-60.5 -32t-112 -12.5h-174z" />
<glyph unicode="&#xaf;" horiz-adv-x="835" d="M59 911h740v105h-740v-105z" />
<glyph unicode="&#xb0;" horiz-adv-x="827" d="M49 676q0 -74 13.5 -143.5t52.5 -122t110.5 -84t188.5 -31.5t188.5 31.5t111.5 84t54 121t14 144.5q0 74 -13 142.5t-53 121.5t-112 85t-188 32q-117 0 -189.5 -32t-111.5 -85t-52.5 -121.5t-13.5 -142.5zM160 676q0 55 10 105t38 88t78 59.5t130 21.5t130 -22.5 t77.5 -59.5t38 -87t10.5 -105q0 -57 -10.5 -107.5t-39 -88.5t-78.5 -59.5t-130 -21.5t-130.5 21.5t-78 59.5t-36.5 88t-9 108z" />
<glyph unicode="&#xb1;" horiz-adv-x="651" d="M14 750h125v-349v-401h84h27v750h334v92h-332v73q0 78 33.5 116t115.5 38q90 0 129 -37t39 -129h109q0 129 -61.5 197.5t-223.5 68.5q-72 0 -121 -17t-78.5 -50t-42 -80t-12.5 -107v-73l-125 -25v-67z" />
<glyph unicode="&#xb4;" horiz-adv-x="882" d="M76 895l729 139v105l-729 -140v-104z" />
<glyph unicode="&#xb5;" horiz-adv-x="985" d="M102 0h127v412h35h244q158 0 218 -68t60 -215v-129h129v133q0 147 -51 226t-162 102q63 18 102.5 47t59 64.5t25.5 75.5t6 77q0 51 -12.5 108.5t-56.5 104.5t-129 79t-230 32h-365v-1049zM229 514v430h242q98 0 156.5 -20.5t89.5 -52t40 -70.5t9 -76t-8 -74t-37 -67.5 t-86 -50t-156 -19.5h-250z" />
<glyph unicode="&#xb6;" horiz-adv-x="503" d="M53 905q0 -61 37 -103t119 -42h65v-760h127v324v729h-198q-74 0 -112 -41t-38 -107z" />
<glyph unicode="&#xb7;" horiz-adv-x="284" d="M41 526q0 -51 26.5 -67.5t73.5 -16.5t74 16.5t27 67.5t-27 67.5t-74 16.5t-73.5 -16t-26.5 -68z" />
<glyph unicode="&#xb8;" horiz-adv-x="897" d="M80 -147v-101h264q115 0 174.5 56.5t59.5 201.5h-113q0 -72 -26.5 -114.5t-108.5 -42.5h-250z" />
<glyph unicode="&#xba;" horiz-adv-x="868" d="M33 641q0 -84 17.5 -161t62.5 -137t122.5 -96t196.5 -36t198 36t124 95t63.5 137t18.5 162q0 82 -18.5 160t-63.5 138t-123 96t-197 36t-196.5 -37t-122.5 -96t-63.5 -137t-18.5 -160zM158 641q0 66 12 125t43 104t84 72t137 27t138.5 -27t85 -72t43 -104t12.5 -125 q0 -68 -12.5 -127t-44 -104t-86 -71t-138.5 -26q-82 0 -135 27t-84 71t-43 103t-12 127z" />
<glyph unicode="&#xbb;" horiz-adv-x="653" d="M43 70h123l174 348l-174 350h-123l172 -350zM313 70h123l174 348l-174 350h-123l172 -350z" />
<glyph unicode="&#xbf;" horiz-adv-x="905" d="M96 338q0 -72 21.5 -136.5t68.5 -111.5t120 -74.5t175 -27.5q106 0 181 28.5t122 79.5t68.5 120t21.5 149h-122q0 -121 -63.5 -195t-209.5 -74q-70 0 -119 19.5t-79.5 52.5t-45 77t-14.5 93q0 63 20.5 107t57.5 72t87 41t110 13h118v244h-106l-16 -147h-48 q-49 0 -109.5 -15.5t-113.5 -52.5t-89 -100.5t-36 -161.5zM461 981q0 -53 27.5 -68.5t72.5 -15.5t73 15.5t28 68.5q0 51 -28 68.5t-73 17.5t-72.5 -17.5t-27.5 -68.5z" />
<glyph unicode="&#xc0;" d="M-6 0h135l90 223h576l88 -223h133l-422 1051h-170zM158 1216l729 -137v104l-729 131v-86v-12zM252 317l256 631l254 -631h-510z" />
<glyph unicode="&#xc1;" d="M-6 0h135l90 223h576l88 -223h133l-422 1051h-170zM144 1077l729 139v105l-729 -140v-104zM252 317l256 631l254 -631h-510z" />
<glyph unicode="&#xc2;" d="M-6 0h135l90 223h576l88 -223h133l-422 1051h-170zM140 1057l364 125l369 -125v104l-369 125l-364 -125v-104zM252 317l256 631l254 -631h-510z" />
<glyph unicode="&#xc3;" d="M-6 0h135l90 223h576l88 -223h133l-422 1051h-170zM114 1139l2 -27h117q0 66 18.5 102.5t77.5 36.5q31 0 77 -23.5t98.5 -52t108.5 -52t110 -23.5q68 0 108.5 15.5t64 42t32 64.5t8.5 85q0 8 -1 26l-1 17h-117v-33q0 -53 -18.5 -81t-79.5 -28q-39 0 -85 23.5t-95.5 51.5 t-102.5 51.5t-104 23.5q-66 0 -109 -18.5t-68.5 -49t-35 -70.5t-5.5 -81zM252 317l256 631l254 -631h-510z" />
<glyph unicode="&#xc4;" d="M-6 0h135l90 223h576l88 -223h133l-422 1051h-170zM252 317l256 631l254 -631h-510zM270 1241q0 -47 24.5 -62.5t69.5 -15.5q41 0 66.5 15.5t25.5 62.5q0 49 -25.5 64.5t-66.5 15.5q-45 0 -69.5 -15.5t-24.5 -64.5zM555 1241q0 -47 24.5 -62.5t67.5 -15.5t67.5 15.5 t24.5 62.5q0 49 -24.5 64.5t-67.5 15.5t-67.5 -15.5t-24.5 -64.5z" />
<glyph unicode="&#xc5;" d="M-3 0h66l44 109h281l43 -109h65l-206 513h-83zM123 155l125 308l124 -308h-249zM276 1305q0 -94 51 -137q50 -42 181 -42q129 0 180 42q51 43 51 137q0 96 -51 137t-180 41q-131 0 -181 -41t-51 -137zM381 1305q0 53 31 70t96 18q66 0 96 -18q31 -17 31 -70t-31 -72 q-31 -18 -96 -19q-66 0 -96 19q-31 18 -31 72z" />
<glyph unicode="&#xc6;" horiz-adv-x="1576" d="M-18 0h135l164 223h528v-223h715v106h-590v377h541v105h-541v354h590v109h-787zM346 317l463 629v-629h-463z" />
<glyph unicode="&#xc7;" horiz-adv-x="1079" d="M70 524q0 -102 18 -194t65.5 -164t130.5 -118t210 -54q-4 -66 -31 -103.5t-105 -37.5h-208v-101h223q111 0 170 52.5t63 189.5q111 6 189.5 41t129 90t73 128t22.5 155h-129q-4 -66 -23.5 -123.5t-59.5 -99.5t-103.5 -65.5t-153.5 -23.5q-106 0 -175 34t-108 91.5 t-54 135t-15 167.5q0 88 15 167t54 136.5t107.5 91t175.5 33.5q88 0 151.5 -24.5t104.5 -66.5t60.5 -98t21.5 -120h131q0 82 -25.5 158t-83 133t-146.5 91t-214 34q-143 0 -236.5 -43t-147.5 -116t-75.5 -170t-21.5 -206z" />
<glyph unicode="&#xc8;" horiz-adv-x="882" d="M102 0h715v106h-588v377h539v105h-539v354h588v107h-715v-1049zM106 1241l709 -135v102l-709 131v-86v-12z" />
<glyph unicode="&#xc9;" horiz-adv-x="884" d="M104 0h715v106h-588v377h539v105h-539v354h588v107h-715v-1049zM104 1096l713 135v102l-711 -135z" />
<glyph unicode="&#xca;" horiz-adv-x="882" d="M102 0h715v106h-588v377h539v105h-539v354h588v107h-715v-1049zM104 1106l353 125l356 -125v104l-356 123l-353 -123v-104z" />
<glyph unicode="&#xcb;" horiz-adv-x="882" d="M102 0h715v106h-588v377h539v105h-539v354h588v107h-715v-1049zM232 1237q0 -47 24.5 -62.5t69.5 -15.5q41 0 66.5 15.5t25.5 62.5q0 49 -25.5 64.5t-66.5 15.5q-45 0 -69.5 -15.5t-24.5 -64.5zM517 1237q0 -47 24.5 -62.5t67.5 -15.5t67.5 15.5t24.5 62.5 q0 49 -24.5 64.5t-67.5 15.5t-67.5 -15.5t-24.5 -64.5z" />
<glyph unicode="&#xcc;" horiz-adv-x="331" d="M37 1190l272 -66v103l-272 67v-104zM102 0h127v1049h-127v-1049z" />
<glyph unicode="&#xcd;" horiz-adv-x="331" d="M31 1124l278 62v104l-278 -63v-103zM102 0h127v1049h-127v-1049z" />
<glyph unicode="&#xce;" horiz-adv-x="333" d="M6 1128l160 70l158 -70v105l-158 70l-160 -70v-105zM102 0h127v1049h-127v-1049z" />
<glyph unicode="&#xcf;" horiz-adv-x="331" d="M102 0h127v1049h-127v-1049zM105 1237q0 -47 24.5 -62.5t69.5 -15.5q41 0 66.5 15.5t25.5 62.5q0 49 -25.5 64.5t-66.5 15.5q-45 0 -69.5 -15.5t-24.5 -64.5zM390 1237q0 -47 24.5 -62.5t67.5 -15.5t67.5 15.5t24.5 62.5q0 49 -24.5 64.5t-67.5 15.5t-67.5 -15.5 t-24.5 -64.5z" />
<glyph unicode="&#xd0;" horiz-adv-x="1060" d="M0 483h139v-55v-430h377q236 0 356.5 140t120.5 392q0 256 -113.5 387.5t-347.5 131.5h-393v-463h-139v-103zM266 102v381h244v103h-244v358h240q186 0 274 -94.5t90 -319.5q0 -223 -94 -325.5t-282 -102.5h-228z" />
<glyph unicode="&#xd1;" horiz-adv-x="1146" d="M106 0h130v903l651 -903h157v1049h-129v-893l-645 893h-164v-447v-602zM167 1157l2 -27h117q0 66 18.5 102.5t77.5 36.5q31 0 77 -23.5t98.5 -52t108.5 -52t110 -23.5q68 0 108.5 15.5t64 42t32 64.5t8.5 85q0 8 -1 26l-1 17h-117v-33q0 -53 -18.5 -81t-79.5 -28 q-39 0 -85 23.5t-95.5 51.5t-102.5 51.5t-104 23.5q-66 0 -109 -18.5t-68.5 -49t-35 -70.5t-5.5 -81z" />
<glyph unicode="&#xd2;" horiz-adv-x="1132" d="M70 524q0 -109 21.5 -206t76.5 -169.5t151.5 -115.5t245.5 -43q150 0 246 43t152.5 115.5t78 168.5t21.5 205t-21.5 206t-78 171t-152.5 117t-246 43q-147 0 -243.5 -43t-152.5 -116t-77.5 -170t-21.5 -206zM199 524q0 88 15 167t57 136.5t113 91t181 33.5 q113 0 184.5 -33.5t112.5 -92t56.5 -136.5t15.5 -168q0 -88 -15.5 -165.5t-56.5 -135t-112.5 -91.5t-184.5 -34q-111 0 -181.5 34t-112.5 91.5t-57 135t-15 167.5zM223 1243l729 -137v104l-729 131v-86v-12z" />
<glyph unicode="&#xd3;" horiz-adv-x="1132" d="M70 524q0 -109 21.5 -206t76.5 -169.5t151.5 -115.5t245.5 -43q150 0 246 43t152.5 115.5t78 168.5t21.5 205t-21.5 206t-78 171t-152.5 117t-246 43q-147 0 -243.5 -43t-152.5 -116t-77.5 -170t-21.5 -206zM197 1110l729 139v105l-729 -140v-104zM199 524q0 88 15 167 t57 136.5t113 91t181 33.5q113 0 184.5 -33.5t112.5 -92t56.5 -136.5t15.5 -168q0 -88 -15.5 -165.5t-56.5 -135t-112.5 -91.5t-184.5 -34q-111 0 -181.5 34t-112.5 91.5t-57 135t-15 167.5z" />
<glyph unicode="&#xd4;" horiz-adv-x="1132" d="M70 524q0 -109 21.5 -206t76.5 -169.5t151.5 -115.5t245.5 -43q150 0 246 43t152.5 115.5t78 168.5t21.5 205t-21.5 206t-78 171t-152.5 117t-246 43q-147 0 -243.5 -43t-152.5 -116t-77.5 -170t-21.5 -206zM199 524q0 88 15 167t57 136.5t113 91t181 33.5 q113 0 184.5 -33.5t112.5 -92t56.5 -136.5t15.5 -168q0 -88 -15.5 -165.5t-56.5 -135t-112.5 -91.5t-184.5 -34q-111 0 -181.5 34t-112.5 91.5t-57 135t-15 167.5zM203 1114l364 125l369 -125v104l-369 125l-364 -125v-104z" />
<glyph unicode="&#xd5;" horiz-adv-x="1155" d="M70 524q0 -109 21.5 -206t76.5 -169.5t151.5 -115.5t245.5 -43q150 0 246 43t152.5 115.5t78 168.5t21.5 205t-21.5 206t-78 171t-152.5 117t-246 43q-147 0 -243.5 -43t-152.5 -116t-77.5 -170t-21.5 -206zM161 1149l2 -27h117q0 66 18.5 102.5t77.5 36.5q31 0 77 -23.5 t98.5 -52t108.5 -52t110 -23.5q68 0 108.5 15.5t64 42t32 64.5t8.5 85q0 8 -1 26l-1 17h-117v-33q0 -53 -18.5 -81t-79.5 -28q-39 0 -85 23.5t-95.5 51.5t-102.5 51.5t-104 23.5q-66 0 -109 -18.5t-68.5 -49t-35 -70.5t-5.5 -81zM199 524q0 88 15 167t57 136.5t113 91 t181 33.5q113 0 184.5 -33.5t112.5 -92t56.5 -136.5t15.5 -168q0 -88 -15.5 -165.5t-56.5 -135t-112.5 -91.5t-184.5 -34q-111 0 -181.5 34t-112.5 91.5t-57 135t-15 167.5z" />
<glyph unicode="&#xd6;" horiz-adv-x="1132" d="M70 524q0 -109 21.5 -206t76.5 -169.5t151.5 -115.5t245.5 -43q150 0 246 43t152.5 115.5t78 168.5t21.5 205t-21.5 206t-78 171t-152.5 117t-246 43q-147 0 -243.5 -43t-152.5 -116t-77.5 -170t-21.5 -206zM199 524q0 88 15 167t57 136.5t113 91t181 33.5 q113 0 184.5 -33.5t112.5 -92t56.5 -136.5t15.5 -168q0 -88 -15.5 -165.5t-56.5 -135t-112.5 -91.5t-184.5 -34q-111 0 -181.5 34t-112.5 91.5t-57 135t-15 167.5zM332 1241q0 -47 24.5 -62.5t69.5 -15.5q41 0 66.5 15.5t25.5 62.5q0 49 -25.5 64.5t-66.5 15.5 q-45 0 -69.5 -15.5t-24.5 -64.5zM617 1241q0 -47 24.5 -62.5t67.5 -15.5t67.5 15.5t24.5 62.5q0 49 -24.5 64.5t-67.5 15.5t-67.5 -15.5t-24.5 -64.5z" />
<glyph unicode="&#xd7;" horiz-adv-x="864" d="M-10 0h145l273 358l274 -358h145l-350 432l328 412h-135l-264 -338l-263 338h-139l330 -412z" />
<glyph unicode="&#xd8;" horiz-adv-x="1155" d="M70 524q0 -84 13 -160.5t46 -142t86 -116t133 -78.5l-45 -136h121l37 107q27 -4 55.5 -6t58.5 -2q150 0 248.5 43t156.5 115.5t81.5 168.5t23.5 205q0 84 -13 161t-46 142.5t-85 115.5t-132 79l49 139h-113h-12l-37 -110q-57 10 -121 10q-147 0 -244.5 -43t-155.5 -116 t-81.5 -170t-23.5 -206zM199 524q0 88 17 167t60 136.5t116 91t183 33.5q23 0 46 -2t41 -6l-273 -801q-55 23 -91 62t-58.5 88t-31.5 107.5t-9 123.5zM498 102l270 803q106 -47 147 -149.5t41 -233.5q0 -88 -17 -165.5t-60 -135t-117 -91.5t-187 -34q-20 0 -40.5 1t-36.5 5z " />
<glyph unicode="&#xd9;" horiz-adv-x="1067" d="M86 475q0 -258 106.5 -371.5t342.5 -113.5q233 0 340.5 113.5t107.5 371.5v576h-129v-572q0 -96 -16.5 -166.5t-53 -118t-98 -70t-151.5 -22.5q-180 0 -251 93.5t-71 285.5v570h-127v-576zM172 1237l729 -137v104l-729 131v-86v-12z" />
<glyph unicode="&#xda;" horiz-adv-x="1067" d="M86 475q0 -258 106.5 -371.5t342.5 -113.5q233 0 340.5 113.5t107.5 371.5v576h-129v-572q0 -96 -16.5 -166.5t-53 -118t-98 -70t-151.5 -22.5q-180 0 -251 93.5t-71 285.5v570h-127v-576zM168 1116l729 139v105l-729 -140v-104z" />
<glyph unicode="&#xdb;" horiz-adv-x="1067" d="M86 475q0 -258 106.5 -371.5t342.5 -113.5q233 0 340.5 113.5t107.5 371.5v576h-129v-572q0 -96 -16.5 -166.5t-53 -118t-98 -70t-151.5 -22.5q-180 0 -251 93.5t-71 285.5v570h-127v-576zM168 1114l364 125l369 -125v104l-369 125l-364 -125v-104z" />
<glyph unicode="&#xdc;" horiz-adv-x="1067" d="M86 475q0 -258 106.5 -371.5t342.5 -113.5q233 0 340.5 113.5t107.5 371.5v576h-129v-572q0 -96 -16.5 -166.5t-53 -118t-98 -70t-151.5 -22.5q-180 0 -251 93.5t-71 285.5v570h-127v-576zM301 1241q0 -47 24.5 -62.5t69.5 -15.5q41 0 66.5 15.5t25.5 62.5 q0 49 -25.5 64.5t-66.5 15.5q-45 0 -69.5 -15.5t-24.5 -64.5zM586 1241q0 -47 24.5 -62.5t67.5 -15.5t67.5 15.5t24.5 62.5q0 49 -24.5 64.5t-67.5 15.5t-67.5 -15.5t-24.5 -64.5z" />
<glyph unicode="&#xdd;" horiz-adv-x="972" d="M-6 1049l420 -734v-315h131v315l432 734h-133l-363 -621l-342 621h-133h-12zM113 1108l729 139v105l-729 -140v-104z" />
<glyph unicode="&#xde;" horiz-adv-x="968" d="M102 0h127v203h260q147 0 231.5 31.5t124.5 81t49 109t9 112.5q0 55 -11 115.5t-54 110.5t-129 84t-234 34h-246v166h-127v-1047zM229 305v471h252q100 0 158.5 -22.5t89.5 -57t39 -77.5t8 -82t-7 -80t-37 -75t-87 -55.5t-158 -21.5h-258z" />
<glyph unicode="&#xdf;" horiz-adv-x="1136" d="M12 741h113v-376v-365h123v340l2 534q0 55 11 91t38 56.5t68 29t102 8.5q129 0 179 -33t50 -119q2 0 2 -16q0 -14 -1 -27.5t-1 -15.5h-24q-168 -16 -237.5 -79.5t-67.5 -160.5q0 -76 46 -117.5t115.5 -66.5t149.5 -38t148.5 -31.5t114.5 -47t44 -84.5q0 -25 -12 -47 t-40 -40.5t-74 -30t-113 -11.5q-147 0 -212 58.5t-63 166.5h-121q-2 -162 93.5 -245.5t304.5 -83.5q96 0 164.5 20.5t111.5 54t63.5 77.5t20.5 89q0 76 -45 121t-113.5 72t-147.5 41t-147.5 31.5t-115.5 43t-49 74.5q-2 55 34.5 83t90 39.5t109.5 12.5t93 1l2 155 q2 139 -81 204t-281 65q-90 0 -152.5 -14.5t-101.5 -45.5t-57.5 -80t-20.5 -116v-17q0 -12 -1 -31.5t-1 -25.5l-113 -25v-78z" />
<glyph unicode="&#xe0;" horiz-adv-x="894" d="M51 240q0 -66 25.5 -112t69.5 -77t102.5 -45t126.5 -14q133 0 225 50t127 128l27 -170h69v481q0 84 -13 152.5t-54 117t-117 75t-203 26.5q-109 0 -178.5 -23.5t-110.5 -64.5t-57 -96.5t-16 -120.5h121q0 47 11 85t38.5 65.5t75 42t118.5 14.5q80 0 130 -15.5t79 -45 t41 -74t12 -99.5l-305 -37q-178 -23 -261 -76t-83 -167zM84 1026l729 -137v104l-729 131v-86v-12zM178 242q0 66 53.5 97.5t182.5 47.5l286 39v-57q0 -70 -23.5 -122t-63.5 -87t-94 -52.5t-118 -17.5q-104 0 -163.5 38t-59.5 114z" />
<glyph unicode="&#xe1;" horiz-adv-x="894" d="M51 240q0 -66 25.5 -112t69.5 -77t102.5 -45t126.5 -14q133 0 225 50t127 128l27 -170h69v481q0 84 -13 152.5t-54 117t-117 75t-203 26.5q-109 0 -178.5 -23.5t-110.5 -64.5t-57 -96.5t-16 -120.5h121q0 47 11 85t38.5 65.5t75 42t118.5 14.5q80 0 130 -15.5t79 -45 t41 -74t12 -99.5l-305 -37q-178 -23 -261 -76t-83 -167zM84 895l729 139v105l-729 -140v-104zM178 242q0 66 53.5 97.5t182.5 47.5l286 39v-57q0 -70 -23.5 -122t-63.5 -87t-94 -52.5t-118 -17.5q-104 0 -163.5 38t-59.5 114z" />
<glyph unicode="&#xe2;" horiz-adv-x="894" d="M51 240q0 -66 25.5 -112t69.5 -77t102.5 -45t126.5 -14q133 0 225 50t127 128l27 -170h69v481q0 84 -13 152.5t-54 117t-117 75t-203 26.5q-109 0 -178.5 -23.5t-110.5 -64.5t-57 -96.5t-16 -120.5h121q0 47 11 85t38.5 65.5t75 42t118.5 14.5q80 0 130 -15.5t79 -45 t41 -74t12 -99.5l-305 -37q-178 -23 -261 -76t-83 -167zM80 895l364 125l369 -125v104l-369 125l-364 -125v-104zM178 242q0 66 53.5 97.5t182.5 47.5l286 39v-57q0 -70 -23.5 -122t-63.5 -87t-94 -52.5t-118 -17.5q-104 0 -163.5 38t-59.5 114z" />
<glyph unicode="&#xe3;" horiz-adv-x="894" d="M51 240q0 -66 25.5 -112t69.5 -77t102.5 -45t126.5 -14q133 0 225 50t127 128l27 -170h69v481q0 84 -13 152.5t-54 117t-117 75t-203 26.5q-109 0 -178.5 -23.5t-110.5 -64.5t-57 -96.5t-16 -120.5h121q0 47 11 85t38.5 65.5t75 42t118.5 14.5q80 0 130 -15.5t79 -45 t41 -74t12 -99.5l-305 -37q-178 -23 -261 -76t-83 -167zM66 934l2 -27h106q2 63 18.5 100t71.5 37q29 0 71 -23.5t90 -51t100.5 -51t101.5 -23.5q61 0 99 14.5t59.5 42t29.5 64.5t8 84q0 8 -1 26l-1 17h-108v-31q0 -53 -16.5 -82t-75.5 -29q-35 0 -77 24t-87 51.5t-93.5 51 t-97.5 23.5q-59 0 -99 -18.5t-63.5 -49t-33 -69.5t-4.5 -80zM178 242q0 66 53.5 97.5t182.5 47.5l286 39v-57q0 -70 -23.5 -122t-63.5 -87t-94 -52.5t-118 -17.5q-104 0 -163.5 38t-59.5 114z" />
<glyph unicode="&#xe4;" horiz-adv-x="894" d="M51 240q0 -66 25.5 -112t69.5 -77t102.5 -45t126.5 -14q133 0 225 50t127 128l27 -170h69v481q0 84 -13 152.5t-54 117t-117 75t-203 26.5q-109 0 -178.5 -23.5t-110.5 -64.5t-57 -96.5t-16 -120.5h121q0 47 11 85t38.5 65.5t75 42t118.5 14.5q80 0 130 -15.5t79 -45 t41 -74t12 -99.5l-305 -37q-178 -23 -261 -76t-83 -167zM178 242q0 66 53.5 97.5t182.5 47.5l286 39v-57q0 -70 -23.5 -122t-63.5 -87t-94 -52.5t-118 -17.5q-104 0 -163.5 38t-59.5 114zM209 1032q0 -47 24.5 -62.5t69.5 -15.5q41 0 66.5 15.5t25.5 62.5q0 49 -25.5 64.5 t-66.5 15.5q-45 0 -69.5 -15.5t-24.5 -64.5zM494 1032q0 -47 24.5 -62.5t67.5 -15.5t67.5 15.5t24.5 62.5q0 49 -24.5 64.5t-67.5 15.5t-67.5 -15.5t-24.5 -64.5z" />
<glyph unicode="&#xe5;" horiz-adv-x="894" d="M25 117q0 -32 12.5 -54.5t34 -37.5t50 -22t61.5 -7q65 0 110 24.5t62 62.5l13 -83h34v235q0 41 -6.5 74.5t-26.5 57t-57 36.5t-99 13q-53 0 -87 -11.5t-54 -31.5t-28 -47t-8 -59h59q0 23 5.5 41.5t19 32t36.5 20.5t58 7q39 0 63.5 -7.5t38.5 -22t20 -36t6 -48.5l-149 -18 q-87 -11 -127.5 -37t-40.5 -82zM87 118q0 32 26 47.5t89 23.5l140 19v-28q0 -34 -11.5 -59.5t-31 -42.5t-46 -25.5t-57.5 -8.5q-51 0 -80 18.5t-29 55.5zM217 1100q0 -94 50 -136t182 -42q129 0 180 42t51 136q0 96 -51 137t-180 41q-131 0 -182 -41q-50 -41 -50 -137z M322 1100q0 53 30 70q31 17 97 18q66 0 96 -18q30 -17 30 -70t-30 -72q-31 -18 -96 -18q-66 0 -97 18t-30 72z" />
<glyph unicode="&#xe6;" horiz-adv-x="1556" d="M59 240q0 -66 26 -112t70 -77t102 -45t126 -14q98 0 179 35.5t124 107.5l33 -137h61l-2 28q-2 29 -3 64t-2 65.5t3 37.5q35 -90 115 -145.5t237 -55.5q100 0 171 22.5t117 61.5t68.5 88t28.5 104h-129q-10 -68 -69.5 -121t-190.5 -53q-152 0 -219 75t-74 200h680 q6 98 -8 187t-58 154.5t-122 104.5t-197 39q-147 0 -233 -54.5t-117 -140.5q-23 92 -96.5 142.5t-235.5 50.5q-106 0 -176.5 -22.5t-113.5 -63.5t-60.5 -98.5t-17.5 -126.5h18h41h43h19q0 68 22.5 108.5t59 62t80.5 29t87 7.5q80 0 130.5 -14.5t79 -43t41 -72t12.5 -98.5 l-301 -33q-180 -20 -264.5 -75.5t-84.5 -171.5zM186 242q0 66 55.5 100.5t184.5 48.5l283 31v-53q0 -70 -23.5 -121t-63.5 -85t-94.5 -51.5t-117.5 -17.5q-104 0 -164 36t-60 112zM831 467q2 57 17.5 109.5t48.5 90.5t86 60.5t133 22.5q74 0 124 -20.5t83 -57.5t47 -88.5 t14 -112.5v-4h-553z" />
<glyph unicode="&#xe7;" horiz-adv-x="917" d="M59 420q0 -80 16.5 -153.5t58.5 -132t113.5 -96.5t180.5 -46q-2 -66 -28.5 -102.5t-104.5 -36.5h-189v-101h203q111 0 170.5 51.5t61.5 188.5q168 14 248.5 102.5t80.5 233.5h-127q-6 -111 -67.5 -172.5t-194.5 -61.5q-86 0 -143 25.5t-91 71t-48.5 104.5t-14.5 127 t14.5 127t48.5 103t91 70t141 26q133 0 195.5 -62.5t68.5 -177.5h127q0 158 -95 251t-294 93q-123 0 -204.5 -36t-130 -96.5t-68 -138t-19.5 -161.5z" />
<glyph unicode="&#xe8;" horiz-adv-x="905" d="M41 424q0 -84 17.5 -163t63.5 -138.5t128 -95t211 -35.5q100 0 169.5 22.5t115 59.5t67 86t27.5 102h-129q-6 -33 -21.5 -64.5t-45.5 -56t-76 -39t-111 -14.5q-152 0 -216.5 78t-70.5 203h668q6 98 -8.5 187t-56.5 154.5t-118.5 104.5t-195.5 39q-127 0 -209 -36 t-128 -96t-63.5 -138t-17.5 -160zM84 1022l729 -137v104l-729 131v-86v-12zM170 467q2 57 16.5 110.5t46 92.5t84 62.5t132.5 23.5q74 0 124 -21.5t80.5 -60.5t44 -90.5t13.5 -112.5v-4h-541z" />
<glyph unicode="&#xe9;" horiz-adv-x="905" d="M41 424q0 -84 17.5 -163t63.5 -138.5t128 -95t211 -35.5q100 0 169.5 22.5t115 59.5t67 86t27.5 102h-129q-6 -33 -21.5 -64.5t-45.5 -56t-76 -39t-111 -14.5q-152 0 -216.5 78t-70.5 203h668q6 98 -8.5 187t-56.5 154.5t-118.5 104.5t-195.5 39q-127 0 -209 -36 t-128 -96t-63.5 -138t-17.5 -160zM96 895l729 139l2 105l-731 -140v-104zM170 467q2 57 16.5 110.5t46 92.5t84 62.5t132.5 23.5q74 0 124 -21.5t80.5 -60.5t44 -90.5t13.5 -112.5v-4h-541z" />
<glyph unicode="&#xea;" horiz-adv-x="905" d="M41 424q0 -84 17.5 -163t63.5 -138.5t128 -95t211 -35.5q100 0 169.5 22.5t115 59.5t67 86t27.5 102h-129q-6 -33 -21.5 -64.5t-45.5 -56t-76 -39t-111 -14.5q-152 0 -216.5 78t-70.5 203h668q6 98 -8.5 187t-56.5 154.5t-118.5 104.5t-195.5 39q-127 0 -209 -36 t-128 -96t-63.5 -138t-17.5 -160zM94 889l367 125l366 -125v104l-366 125l-367 -125v-104zM170 467q2 57 16.5 110.5t46 92.5t84 62.5t132.5 23.5q74 0 124 -21.5t80.5 -60.5t44 -90.5t13.5 -112.5v-4h-541z" />
<glyph unicode="&#xeb;" horiz-adv-x="905" d="M41 424q0 -84 17.5 -163t63.5 -138.5t128 -95t211 -35.5q100 0 169.5 22.5t115 59.5t67 86t27.5 102h-129q-6 -33 -21.5 -64.5t-45.5 -56t-76 -39t-111 -14.5q-152 0 -216.5 78t-70.5 203h668q6 98 -8.5 187t-56.5 154.5t-118.5 104.5t-195.5 39q-127 0 -209 -36 t-128 -96t-63.5 -138t-17.5 -160zM170 467q2 57 16.5 110.5t46 92.5t84 62.5t132.5 23.5q74 0 124 -21.5t80.5 -60.5t44 -90.5t13.5 -112.5v-4h-541zM238 1026q0 -47 24.5 -62.5t69.5 -15.5q41 0 66.5 15.5t25.5 62.5q0 49 -25.5 64.5t-66.5 15.5q-45 0 -69.5 -15.5 t-24.5 -64.5zM522 1026q0 -47 24.5 -62.5t69.5 -15.5q41 0 67 15.5t26 62.5q0 49 -26 64.5t-67 15.5q-45 0 -69.5 -15.5t-24.5 -64.5z" />
<glyph unicode="&#xec;" horiz-adv-x="284" d="M20 989l267 -61v104l-267 62v-105zM84 0h22h101v844h-123v-844z" />
<glyph unicode="&#xed;" horiz-adv-x="286" d="M4 928l281 63v105l-281 -64v-104zM84 0h22h101v844h-123v-844z" />
<glyph unicode="&#xee;" horiz-adv-x="288" d="M-18 920l161 69l156 -65v100l-156 70l-161 -70v-104zM84 0h22h101v844h-123v-844z" />
<glyph unicode="&#xef;" horiz-adv-x="286" d="M-72 1024q0 -47 24.5 -62.5t70.5 -15.5q41 0 66.5 15.5t25.5 62.5q0 49 -26 64.5t-66 15.5q-45 0 -70 -15.5t-25 -64.5zM84 0h22h101v844h-123v-844zM172 1024q0 -47 24.5 -62.5t69.5 -15.5q41 0 65.5 15.5t24.5 62.5q0 49 -24.5 64.5t-65.5 15.5q-45 0 -69.5 -15.5 t-24.5 -64.5z" />
<glyph unicode="&#xf0;" horiz-adv-x="950" d="M49 424q0 -90 16.5 -169t58.5 -137.5t112.5 -93t179.5 -34.5q78 0 136 14t98 36.5t65.5 53.5t38.5 64l24 -158h70v102v824h172v104h-172v129h-123v-129h-174v-104h174v-226q-27 63 -98.5 108.5t-210.5 45.5q-109 0 -180.5 -34t-112.5 -92t-57.5 -137t-16.5 -167zM174 424 q0 72 11.5 132t42 103t84 67t139.5 24q88 0 143 -25t84 -69t39 -103t10 -129q0 -74 -11 -135.5t-42 -104.5t-85 -66.5t-140 -23.5q-84 0 -137.5 23.5t-84 67.5t-42 104.5t-11.5 134.5z" />
<glyph unicode="&#xf1;" horiz-adv-x="913" d="M82 911h111q0 63 16 100.5t74 37.5q31 0 72.5 -24t91 -51.5t102.5 -51t104 -23.5q63 0 102.5 14.5t61 42t28.5 64.5t7 84v43h-111v-31q0 -53 -17 -81.5t-77 -28.5q-37 0 -79 23.5t-89 51t-95 51t-97 23.5q-61 0 -101.5 -18.5t-64 -49t-31.5 -69.5t-8 -80v-27zM90 0h123 v463q0 68 10 121t40 90t81 56.5t131 19.5t130 -19.5t77 -56.5t36 -90.5t9 -120.5v-463h18h103v453q0 90 -13.5 164.5t-50 127t-103.5 81t-173 28.5q-76 0 -131 -13.5t-94 -36t-62.5 -51t-36.5 -61.5l-37 150h-47h-10v-842z" />
<glyph unicode="&#xf2;" horiz-adv-x="884" d="M41 422q0 -84 17.5 -161t62.5 -137.5t123 -96t196 -35.5q119 0 198 35.5t124 95t63.5 137.5t18.5 162q0 82 -18.5 159.5t-63.5 137t-123 96.5t-197 37t-196.5 -37t-122.5 -96.5t-63.5 -137t-18.5 -159.5zM84 1024l729 -137v104l-729 131v-86v-12zM166 422q0 66 12 125 t43 103t84 71t137 27t137.5 -27t84 -71t43 -103t12.5 -125q0 -68 -12.5 -127t-43 -104.5t-85 -71t-138.5 -25.5t-137 26.5t-84 71t-42 103.5t-11 127z" />
<glyph unicode="&#xf3;" horiz-adv-x="884" d="M41 422q0 -84 17.5 -161t62.5 -137.5t123 -96t196 -35.5q119 0 198 35.5t124 95t63.5 137.5t18.5 162q0 82 -18.5 159.5t-63.5 137t-123 96.5t-197 37t-196.5 -37t-122.5 -96.5t-63.5 -137t-18.5 -159.5zM78 895l729 139v105l-729 -140v-104zM166 422q0 66 12 125t43 103 t84 71t137 27t137.5 -27t84 -71t43 -103t12.5 -125q0 -68 -12.5 -127t-43 -104.5t-85 -71t-138.5 -25.5t-137 26.5t-84 71t-42 103.5t-11 127z" />
<glyph unicode="&#xf4;" horiz-adv-x="876" d="M41 422q0 -84 17.5 -161t62.5 -137.5t123 -96t196 -35.5q119 0 198 35.5t124 95t63.5 137.5t18.5 162q0 82 -18.5 159.5t-63.5 137t-123 96.5t-197 37t-196.5 -37t-122.5 -96.5t-63.5 -137t-18.5 -159.5zM70 897l364 125l369 -125v104l-369 125l-364 -125v-104zM166 422 q0 66 12 125t43 103t84 71t137 27t137.5 -27t84 -71t43 -103t12.5 -125q0 -68 -12.5 -127t-43 -104.5t-85 -71t-138.5 -25.5t-137 26.5t-84 71t-42 103.5t-11 127z" />
<glyph unicode="&#xf5;" horiz-adv-x="884" d="M41 422q0 -84 17.5 -161t62.5 -137.5t123 -96t196 -35.5q119 0 198 35.5t124 95t63.5 137.5t18.5 162q0 82 -18.5 159.5t-63.5 137t-123 96.5t-197 37t-196.5 -37t-122.5 -96.5t-63.5 -137t-18.5 -159.5zM53 909h111q2 61 18.5 97t73.5 36q31 0 74 -22.5t92 -50 t102.5 -50t104.5 -22.5q63 0 102 14.5t60.5 40t29.5 62.5t8 80v43h-110l-2 -31q-4 -51 -18.5 -78t-73.5 -27q-37 0 -81 23t-90 49.5t-96.5 49t-99.5 22.5q-61 0 -101 -18.5t-63.5 -47t-32 -67.5t-8.5 -78v-25zM166 422q0 66 12 125t43 103t84 71t137 27t137.5 -27t84 -71 t43 -103t12.5 -125q0 -68 -12.5 -127t-43 -104.5t-85 -71t-138.5 -25.5t-137 26.5t-84 71t-42 103.5t-11 127z" />
<glyph unicode="&#xf6;" horiz-adv-x="876" d="M41 422q0 -84 17.5 -161t62.5 -137.5t123 -96t196 -35.5q119 0 198 35.5t124 95t63.5 137.5t18.5 162q0 82 -18.5 159.5t-63.5 137t-123 96.5t-197 37t-196.5 -37t-122.5 -96.5t-63.5 -137t-18.5 -159.5zM166 422q0 66 12 125t43 103t84 71t137 27t137.5 -27t84 -71 t43 -103t12.5 -125q0 -68 -12.5 -127t-43 -104.5t-85 -71t-138.5 -25.5t-137 26.5t-84 71t-42 103.5t-11 127zM207 1026q0 -47 24.5 -62.5t69.5 -15.5q41 0 66.5 15.5t25.5 62.5q0 49 -25.5 64.5t-66.5 15.5q-45 0 -69.5 -15.5t-24.5 -64.5zM492 1026q0 -47 24.5 -62.5 t67.5 -15.5t67.5 15.5t24.5 62.5q0 49 -24.5 64.5t-67.5 15.5t-67.5 -15.5t-24.5 -64.5z" />
<glyph unicode="&#xf7;" horiz-adv-x="1017" d="M63 371h889v102h-889v-102zM412 66q0 -47 25.5 -62.5t68.5 -15.5t67.5 15.5t24.5 62.5q0 49 -24.5 64t-67.5 15t-68.5 -15t-25.5 -64zM412 772q0 -47 25.5 -63.5t68.5 -16.5t67.5 16.5t24.5 63.5t-24.5 62.5t-67.5 15.5t-68.5 -15.5t-25.5 -62.5z" />
<glyph unicode="&#xf8;" horiz-adv-x="954" d="M49 422q0 -66 10.5 -127.5t37 -113.5t71.5 -93t115 -65l-45 -132h116l37 107q37 -6 84 -6q129 0 212 35.5t132 95t67.5 137.5t18.5 162q0 63 -11 124.5t-38 115t-72 94.5t-114 65l45 133h-115l-37 -110q-20 4 -41.5 6t-44.5 2q-129 0 -212 -37t-131 -96.5t-66.5 -137 t-18.5 -159.5zM172 422q0 61 11.5 115.5t41 97.5t81.5 70.5t132 33.5q23 2 44 1t44 -3l-204 -602q-88 35 -119 113t-31 174zM426 104l205 605q88 -35 119.5 -114t31.5 -173q0 -61 -11 -117.5t-42 -99.5t-83 -69.5t-132 -33.5q-23 -2 -44 -1t-44 3z" />
<glyph unicode="&#xf9;" horiz-adv-x="899" d="M72 387q0 -90 13 -163.5t50 -126t103.5 -80t173.5 -27.5q150 0 224.5 48t98.5 114l25 -154h69v844h-112h-10v-459q0 -70 -10.5 -123t-40 -90t-81 -56.5t-131.5 -19.5t-130 18.5t-76.5 55.5t-35.5 89t-9 120v465h-17h-104v-455zM80 1030l737 -137v104l-737 131v-86v-12z " />
<glyph unicode="&#xfa;" horiz-adv-x="899" d="M72 387q0 -90 13 -163.5t50 -126t103.5 -80t173.5 -27.5q150 0 224.5 48t98.5 114l25 -154h69v844h-112h-10v-459q0 -70 -10.5 -123t-40 -90t-81 -56.5t-131.5 -19.5t-130 18.5t-76.5 55.5t-35.5 89t-9 120v465h-17h-104v-455zM74 899l737 139v105l-737 -139v-105z" />
<glyph unicode="&#xfb;" horiz-adv-x="899" d="M72 387q0 -90 13 -163.5t50 -126t103.5 -80t173.5 -27.5q150 0 224.5 48t98.5 114l25 -154h69v844h-112h-10v-459q0 -70 -10.5 -123t-40 -90t-81 -56.5t-131.5 -19.5t-130 18.5t-76.5 55.5t-35.5 89t-9 120v465h-17h-104v-455zM78 897l371 125l372 -125v104l-372 125 l-371 -125v-104z" />
<glyph unicode="&#xfc;" horiz-adv-x="899" d="M72 387q0 -90 13 -163.5t50 -126t103.5 -80t173.5 -27.5q150 0 224.5 48t98.5 114l25 -154h69v844h-112h-10v-459q0 -70 -10.5 -123t-40 -90t-81 -56.5t-131.5 -19.5t-130 18.5t-76.5 55.5t-35.5 89t-9 120v465h-17h-104v-455zM207 1024q0 -47 24.5 -62.5t69.5 -15.5 q41 0 66.5 15.5t25.5 62.5q0 49 -25.5 64.5t-66.5 15.5q-45 0 -69.5 -15.5t-24.5 -64.5zM492 1024q0 -47 24.5 -62.5t67.5 -15.5t67.5 15.5t24.5 62.5q0 49 -24.5 64.5t-67.5 15.5t-67.5 -15.5t-24.5 -64.5z" />
<glyph unicode="&#xfd;" horiz-adv-x="950" d="M94 -45q0 -63 16.5 -116.5t59.5 -92.5t116.5 -60.5t188.5 -21.5q123 0 198 30t116.5 77t56 106.5t14.5 120.5v846h-123v-463q0 -70 -10 -123t-40 -90t-80 -56.5t-130 -19.5q-82 0 -131 18.5t-75.5 55.5t-36 89t-9.5 120v469h-123v-459q0 -92 13.5 -165t50.5 -125 t103.5 -79.5t174.5 -27.5q131 0 198 39t95 104v-141q0 -45 -9 -86t-36.5 -73t-79 -50.5t-135.5 -18.5q-82 0 -132 14.5t-78.5 40t-39 61.5t-10.5 77h-123zM115 905l741 139v105l-741 -139v-105z" />
<glyph unicode="&#xfe;" horiz-adv-x="929" d="M82 -322h121v465q27 -63 98.5 -109t212.5 -46q109 0 179.5 34.5t111.5 93t57.5 137.5t16.5 167t-16.5 168t-57.5 138t-110.5 93t-178.5 35q-141 0 -214 -46t-99 -112v121v285h-121v-314v-1110zM201 420q0 74 11 134t42 104t85 68t140 24t139.5 -24t83 -68t41 -104 t11.5 -134q0 -72 -11.5 -132.5t-41 -103.5t-84 -67.5t-140.5 -24.5q-88 0 -142 24.5t-84 68.5t-40 103.5t-10 131.5z" />
<glyph unicode="&#xff;" horiz-adv-x="929" d="M72 -45q0 -63 17 -116.5t60.5 -92.5t117 -60.5t188.5 -21.5q123 0 197.5 30t116.5 77t56.5 106.5t14.5 120.5v846h-123v-463q0 -70 -10.5 -123t-40 -90t-80.5 -56.5t-131 -19.5t-130.5 18.5t-77 55.5t-35.5 89t-9 120v469h-121v-459q0 -92 13.5 -165t50 -125t103 -79.5 t173.5 -27.5q131 0 198.5 39t96.5 104v-141q0 -45 -9.5 -86t-38 -73t-79.5 -50.5t-135 -18.5q-82 0 -132.5 14.5t-78 40t-37.5 61.5t-12 77h-123zM238 1024q0 -47 24.5 -62.5t69.5 -15.5q41 0 66.5 15.5t25.5 62.5q0 49 -25.5 64.5t-66.5 15.5q-45 0 -69.5 -15.5 t-24.5 -64.5zM523 1024q0 -47 24.5 -62.5t67.5 -15.5t67.5 15.5t24.5 62.5q0 49 -24.5 64.5t-67.5 15.5t-67.5 -15.5t-24.5 -64.5z" />
<glyph unicode="&#x152;" horiz-adv-x="1720" d="M70 524q0 -109 21.5 -206t77.5 -169.5t153.5 -115.5t246.5 -43q156 0 243 60.5t130 158.5l-2 -209h715v111h-588v370h539v109h-539v350h588v109h-715l2 -209q-43 98 -130 158.5t-243 60.5q-150 0 -246 -43t-152 -116t-78.5 -170t-22.5 -206zM199 524q0 88 17 166 t60 135.5t115 90t178 32.5t178 -32.5t115 -90t60.5 -135.5t17.5 -168q0 -88 -17.5 -164.5t-60.5 -134t-114.5 -90.5t-178.5 -33q-106 0 -178 33t-115 90.5t-60 134t-17 166.5z" />
<glyph unicode="&#x153;" horiz-adv-x="1630" d="M49 422q0 -84 18.5 -161t65.5 -137.5t130 -96t212 -35.5q86 0 149.5 17.5t106.5 48t69.5 72.5t41.5 91q14 -49 39.5 -91t68.5 -72.5t105.5 -48t148.5 -17.5q100 0 171 22.5t117 59.5t68.5 86t28.5 102h-131q-6 -33 -21.5 -63.5t-46 -53t-77.5 -37t-113 -14.5 q-154 0 -221.5 75t-71.5 200h678q6 98 -8 187t-57 154.5t-121 104.5t-197 39q-86 0 -148.5 -17.5t-105.5 -49t-68.5 -73.5t-37.5 -91q-14 49 -41 91t-71 72.5t-106.5 48t-148.5 17.5q-129 0 -212 -37t-130 -96.5t-65.5 -137t-18.5 -159.5zM174 422q0 63 12.5 120.5t46 100.5 t93 68.5t151.5 25.5t151.5 -25.5t93.5 -68.5t46 -100.5t12 -120.5q0 -66 -13 -124t-47 -101t-93.5 -68t-151.5 -25t-150.5 26t-92 69t-46 100t-12.5 123zM907 467q2 57 17.5 109.5t48.5 90.5t86 60.5t133 22.5q74 0 124 -21.5t83 -58.5t47 -88.5t14 -110.5v-4h-553z" />
<glyph unicode="&#x178;" horiz-adv-x="972" d="M-6 1049l420 -734v-315h131v315l432 734h-133l-363 -621l-342 621h-133h-12zM248 1239q0 -47 24.5 -62.5t69.5 -15.5q41 0 66.5 15.5t25.5 62.5q0 49 -25.5 64.5t-66.5 15.5q-45 0 -69.5 -15.5t-24.5 -64.5zM533 1239q0 -47 24.5 -62.5t67.5 -15.5t67.5 15.5t24.5 62.5 q0 49 -24.5 64.5t-67.5 15.5t-67.5 -15.5t-24.5 -64.5z" />
<glyph unicode="&#x2c6;" horiz-adv-x="878" d="M72 895l364 125l369 -125v104l-369 125l-364 -125v-104z" />
<glyph unicode="&#x2dc;" horiz-adv-x="937" d="M61 926l2 -27h117q0 66 18.5 102.5t77.5 36.5q31 0 77 -23.5t98.5 -52t108.5 -52t110 -23.5q68 0 108.5 15.5t64 42t32 64.5t8.5 85q0 8 -1 26l-1 17h-117v-33q0 -53 -18.5 -81t-79.5 -28q-39 0 -85 23.5t-95.5 51.5t-102.5 51.5t-104 23.5q-66 0 -109 -18.5t-68.5 -49 t-35 -70.5t-5.5 -81z" />
<glyph unicode="&#x2000;" horiz-adv-x="741" />
<glyph unicode="&#x2001;" horiz-adv-x="1483" />
<glyph unicode="&#x2002;" horiz-adv-x="741" />
<glyph unicode="&#x2003;" horiz-adv-x="1483" />
<glyph unicode="&#x2004;" horiz-adv-x="494" />
<glyph unicode="&#x2005;" horiz-adv-x="370" />
<glyph unicode="&#x2006;" horiz-adv-x="247" />
<glyph unicode="&#x2007;" horiz-adv-x="247" />
<glyph unicode="&#x2008;" horiz-adv-x="185" />
<glyph unicode="&#x2009;" horiz-adv-x="296" />
<glyph unicode="&#x200a;" horiz-adv-x="82" />
<glyph unicode="&#x2010;" horiz-adv-x="598" d="M63 373h469v102h-469v-102z" />
<glyph unicode="&#x2011;" horiz-adv-x="598" d="M63 373h469v102h-469v-102z" />
<glyph unicode="&#x2012;" horiz-adv-x="598" d="M63 373h469v102h-469v-102z" />
<glyph unicode="&#x2013;" horiz-adv-x="1017" d="M63 373h889v102h-889v-102z" />
<glyph unicode="&#x2014;" horiz-adv-x="1302" d="M63 373h1176v102h-1176v-102z" />
<glyph unicode="&#x2018;" horiz-adv-x="282" d="M41 756q0 -53 27.5 -69.5t72.5 -16.5t73 16.5t28 69.5q0 41 -20.5 59.5t-61.5 22.5q-4 2 -8 2h-7l27 207h-82l-6 -30t-13.5 -70t-14.5 -80t-9 -60q-6 -35 -6 -51z" />
<glyph unicode="&#x2019;" horiz-adv-x="284" d="M41 971q0 -43 21.5 -61.5t62.5 -22.5h14l-26 -207h80l6 30q6 29 14 69t15.5 80t9.5 61q2 16 4 29.5t2 21.5q0 53 -28 69.5t-73 16.5t-73.5 -16.5t-28.5 -69.5z" />
<glyph unicode="&#x201a;" horiz-adv-x="282" d="M41 76q0 -43 21.5 -61.5t62.5 -22.5q2 0 6 -1t8 -1l-26 -207h80l6 29l14 70t15.5 81t9.5 62q2 16 4 28.5t2 22.5q0 51 -28 67.5t-73 16.5t-73.5 -16.5t-28.5 -67.5z" />
<glyph unicode="&#x201c;" horiz-adv-x="563" d="M43 756q0 -53 27.5 -69.5t72.5 -16.5t73 16.5t28 69.5q0 41 -20.5 59.5t-61.5 22.5q-4 2 -15 2l27 207h-82l-5 -30q-5 -30 -13 -70t-15.5 -80t-9.5 -60q-2 -16 -4 -29.5t-2 -21.5zM317 756q0 -53 28 -69.5t73 -16.5q47 0 74.5 16.5t27.5 69.5q0 41 -21.5 58t-62.5 24 q-2 2 -6 2h-8l27 207h-80l-7 -30l-14 -70t-15 -80t-9 -60q-2 -16 -4.5 -29.5t-2.5 -21.5z" />
<glyph unicode="&#x201d;" horiz-adv-x="559" d="M41 973q0 -43 21.5 -61.5t62.5 -22.5h6t8 -2l-26 -207h80l6 30q6 31 14 71t15.5 80t9.5 61q2 16 4 28.5t2 22.5q0 51 -28 67.5t-73 16.5t-73.5 -15.5t-28.5 -68.5zM317 973q0 -43 20.5 -61.5t61.5 -22.5q10 0 15 -2l-27 -207h82l5 30q5 31 13.5 71t14.5 80t10 61 q2 16 4 28.5t2 22.5q0 51 -27.5 67.5t-72.5 16.5t-73 -15.5t-28 -68.5z" />
<glyph unicode="&#x201e;" horiz-adv-x="559" d="M41 76q0 -43 21.5 -61.5t62.5 -22.5q2 0 6 -1t8 -1l-26 -207h80l6 29l14 70t15.5 81t9.5 62q2 16 4 28.5t2 22.5q0 51 -28 67.5t-73 16.5t-73.5 -16.5t-28.5 -67.5zM317 76q0 -43 20.5 -61.5t61.5 -22.5q4 0 7.5 -1t7.5 -1l-27 -207h82l5 29q5 30 13.5 70t14.5 81t10 62 q2 16 4 28.5t2 22.5q0 51 -27.5 67.5t-72.5 16.5t-73 -16.5t-28 -67.5z" />
<glyph unicode="&#x2022;" horiz-adv-x="1312" d="M76 524q0 -109 23.5 -206t88 -170.5t177 -117.5t290.5 -44t292 44t178.5 117.5t89 171t24.5 203.5q0 109 -24.5 207t-89 172t-178 118t-292.5 44q-176 0 -288.5 -44t-177 -118t-89 -172t-24.5 -205z" />
<glyph unicode="&#x2026;" horiz-adv-x="872" d="M41 74q0 -53 27.5 -69.5t74.5 -16.5q45 0 73 16.5t28 69.5q0 51 -28 67.5t-73 16.5t-73.5 -16.5t-28.5 -67.5zM336 74q0 -53 27.5 -69.5t72.5 -16.5t73 16.5t28 69.5q0 51 -28 67.5t-73 16.5t-72.5 -16.5t-27.5 -67.5zM629 74q0 -53 27.5 -69.5t72.5 -16.5t72.5 16.5 t27.5 69.5q0 51 -27.5 67.5t-72.5 16.5t-72.5 -16.5t-27.5 -67.5z" />
<glyph unicode="&#x202f;" horiz-adv-x="296" />
<glyph unicode="&#x2039;" horiz-adv-x="382" d="M43 418l174 -348h123l-172 348l172 350h-123z" />
<glyph unicode="&#x203a;" horiz-adv-x="382" d="M43 70h123l174 348l-174 350h-123l172 -350z" />
<glyph unicode="&#x205f;" horiz-adv-x="370" />
<glyph unicode="&#x2122;" horiz-adv-x="1562" d="M27 1051l2 -97h213v-632h112v634h213v95h-540zM635 319h98v590l271 -590h90l264 586v-586h112v730h-75h-88l-258 -590l-271 592l-131 -2h-12v-730z" />
<glyph unicode="&#xe000;" horiz-adv-x="839" d="M0 0v840h840v-840h-840z" />
<glyph unicode="&#xfb01;" horiz-adv-x="610" d="M2 741h113v-741h121v741h163v-741h123v844h-284v71q0 43 12 74t44 49.5t87 24.5t141 2v102q-115 6 -192.5 -4t-124.5 -39.5t-68.5 -80t-21.5 -125.5v-76l-113 -25v-76z" />
<glyph unicode="&#xfb02;" horiz-adv-x="604" d="M2 741h113v-372v-369h98h25v741h73h88v-741h123v1163q-88 4 -162.5 6t-129 -19.5t-85 -74.5t-30.5 -157v-74l-113 -25v-78zM240 844v74q0 39 4 67.5t20.5 47t48 26.5t86.5 4v-219h-159z" />
</font>
</defs>
</svg>
